<?xml version="1.0" standalone="no"?>
<!DOCTYPE svg PUBLIC "-//W3C//DTD SVG 1.1//EN" "http://www.w3.org/Graphics/SVG/1.1/DTD/svg11.dtd" >
<svg xmlns="http://www.w3.org/2000/svg">
<metadata></metadata>
<defs>
<font id="bluu_nextbold_italic" horiz-adv-x="507" >
<font-face units-per-em="1000" ascent="740" descent="-260" />
<missing-glyph horiz-adv-x="200" />
<glyph unicode="&#xd;" horiz-adv-x="0" />
<glyph unicode=" "  horiz-adv-x="200" />
<glyph unicode="&#x09;" horiz-adv-x="200" />
<glyph unicode="&#xa0;" horiz-adv-x="200" />
<glyph unicode="!" horiz-adv-x="217" d="M163 657l-46 -437h-34l-47 437l64 46zM23 66l82 93l81 -93l-81 -92z" />
<glyph unicode="&#x22;" horiz-adv-x="246" d="M72 479l-38 3l4 221l71 -7zM183 469l-38 3l4 221l71 -6z" />
<glyph unicode="#" horiz-adv-x="485" d="M195 429h135l45 179h26l-44 -179h103v-50h-116l-35 -152h124v-51h-136l-45 -176h-27l45 176h-135l-46 -176h-26l45 176h-83v51h96l35 152h-104v50h116l44 179h27zM147 227h136l35 152h-136z" />
<glyph unicode="$" horiz-adv-x="449" d="M184 -7q-43 2 -85 10.5t-68 20.5l-11 209h10q19 -73 60.5 -126.5t93.5 -72.5v209q-95 42 -128 83.5t-33 101.5q0 70 43 115t119 52v54h62l-2 -53h91l42 13v-188l-7 1q-18 52 -51 87t-76 50l-7 -189q64 -27 86.5 -39t38.5 -24q32 -24 47.5 -53.5t15.5 -66.5 q0 -90 -51.5 -139.5t-149.5 -54.5l-2 -51h-38v51zM185 568q-35 -2 -56 -23t-21 -56q0 -29 18.5 -52t58.5 -44v175zM330 104q0 36 -22 63.5t-76 53.5l-7 -195h7q42 0 70 21.5t28 56.5z" />
<glyph unicode="%" horiz-adv-x="716" d="M30 494q0 84 43.5 142.5t114.5 58.5q56 0 90.5 -48t34.5 -121q0 -84 -43.5 -142.5t-114.5 -58.5q-56 0 -90.5 48t-34.5 121zM211 0h-58l343 695h58zM187 365q24 0 38 28.5t14 70.5q0 81 -23 136t-59 55q-26 0 -39 -24t-13 -75q0 -81 23 -136t59 -55zM399 169 q0 84 43.5 142.5t114.5 58.5q56 0 90.5 -48t34.5 -121q0 -84 -43.5 -142.5t-114.5 -58.5q-56 0 -90.5 48t-34.5 121zM556 40q24 0 38 28.5t14 70.5q0 81 -23 136t-59 55q-26 0 -39 -24t-13 -75q0 -81 23 -136t59 -55z" />
<glyph unicode="&#x26;" horiz-adv-x="690" d="M447 317l194 64l3 -6l-76 -78q3 -59 -20.5 -120.5t-68.5 -106.5q-43 -44 -100.5 -66.5t-126.5 -22.5q-86 0 -146 42t-60 112q0 31 9 57.5t28 50.5q15 19 37.5 36.5t52.5 32.5q24 13 61.5 29t43.5 18q-117 17 -163.5 48t-46.5 83q0 45 34.5 89t95.5 73q44 21 97.5 32 t114.5 11l35 -116l-5 -5l-136 92q-43 0 -70 -44t-27 -121q0 -55 27.5 -90t68.5 -35q27 0 47.5 4.5t53.5 18.5l13 -40q-31 0 -47 0.5t-30 1.5q-70 -21 -105.5 -71.5t-35.5 -128.5q0 -75 24 -111.5t80 -36.5q48 0 94.5 24.5t81.5 68.5q35 43 50 93t7 98l-87 15z" />
<glyph unicode="'" horiz-adv-x="134" d="M71 474l-38 3l4 221l71 -6z" />
<glyph unicode="(" horiz-adv-x="266" d="M95 528q15 27 33 52.5t42 52.5q21 23 54.5 56.5l36.5 36.5l14 -15q-96 -102 -139 -206t-43 -229t43.5 -229.5t138.5 -205.5l-14 -15q-74 67 -108.5 109.5t-58.5 87.5q-29 55 -43 118t-14 135q0 35 3.5 67.5t10.5 63.5q7 32 18 62t26 59z" />
<glyph unicode=")" horiz-adv-x="290" d="M15 -159q95 101 138.5 205.5t43.5 229.5t-43 229t-139 206l14 15q3 -3 36.5 -36t53.5 -56q24 -27 42.5 -53t33.5 -53q15 -29 26 -59.5t19 -62.5q6 -31 9.5 -63t3.5 -67q0 -72 -14 -135t-43 -118q-24 -45 -58.5 -87.5t-108.5 -109.5z" />
<glyph unicode="*" horiz-adv-x="335" d="M178 529h-18l-26 117l34 42l35 -40zM148 523l-9 -16l-111 36l-15 52l51 10zM197 507l-9 16l83 82l52 -10l-16 -52zM139 491l9 -16l-84 -83l-51 11l15 52zM188 475l9 16l110 -36l16 -52l-52 -11zM160 471h18l26 -117l-34 -42l-35 40z" />
<glyph unicode="+" horiz-adv-x="530" d="M293 310h180v-72h-180v-198h-78v198h-170v72h170v188h78v-188z" />
<glyph unicode="," horiz-adv-x="227" d="M113 159q31 -20 54 -48t23 -49q0 -45 -33 -90.5t-107 -94.5l-13 10q30 26 46 53t16 51q0 10 -3 18t-25 34l-37 31z" />
<glyph unicode="-" horiz-adv-x="294" d="M264 244h-223v76h223v-76z" />
<glyph unicode="." horiz-adv-x="181" d="M9 66l82 93l81 -93l-81 -92z" />
<glyph unicode="/" horiz-adv-x="445" d="M111 0h-74l297 695h74z" />
<glyph unicode="0" horiz-adv-x="561" d="M51 268q0 138 71.5 236t184.5 98q90 0 146.5 -81t56.5 -201q0 -138 -71.5 -236t-184.5 -98q-90 0 -146.5 81t-56.5 201zM305 31q39 0 63 54t24 126q0 145 -39 245.5t-96 100.5q-42 0 -64 -46.5t-22 -133.5q0 -145 38.5 -245.5t95.5 -100.5z" />
<glyph unicode="1" horiz-adv-x="382" d="M43 384l-1 2l208 221v-541l90 -66h-289l85 66v354z" />
<glyph unicode="2" horiz-adv-x="528" d="M477 240l-20 -240h-404l-7 33q116 95 188.5 210t72.5 215q0 50 -28.5 80t-76.5 30q-45 0 -77.5 -33.5t-61.5 -112.5h-5v173h130q110 0 179 -42t69 -113q0 -50 -32 -98t-134 -130q-49 -39 -70.5 -59t-35.5 -37l2 -5l59 5l193 3l55 121h4z" />
<glyph unicode="3" horiz-adv-x="502" d="M447 186q0 -47 -41.5 -87t-120.5 -69q-55 -21 -120.5 -33.5t-111.5 -12.5l-8 25q102 0 176.5 39t74.5 104q0 55 -37.5 88.5t-122.5 50.5q-3 -1 -6 -1.5l-9 -1.5q-6 -2 -9 -2.5t-6 -1.5l-2 17l32 12q102 38 137.5 72t35.5 76q0 48 -31.5 77t-84.5 29q-39 0 -68.5 -29.5 t-61.5 -112.5h-5v170h147q113 0 173 -30.5t60 -89.5q0 -49 -52 -86t-169 -70q114 -10 172 -43.5t58 -89.5z" />
<glyph unicode="4" horiz-adv-x="568" d="M394 193h122v-45h-122v-82l90 -66h-289l84 66v83h-232l229 446h139l-270 -401h133v80l116 178v-259z" />
<glyph unicode="5" horiz-adv-x="481" d="M391 476h-266l-19 -122l37 21q24 11 48 16.5t47 5.5q76 0 132.5 -53t56.5 -131q0 -102 -68.5 -157t-194.5 -55h-115q2 53 3 96t1 76h7q11 -26 25.5 -49.5t33.5 -44.5q23 -25 48 -37.5t50 -12.5q51 0 72 33.5t21 110.5q0 97 -26.5 140.5t-79.5 43.5q-18 0 -44.5 -9.5 t-58.5 -27.5h-4l-5 -27h-33l40 294l1 9h270l57 51l-11 -51z" />
<glyph unicode="6" horiz-adv-x="508" d="M240 -12q-85 0 -137.5 56t-52.5 149q0 126 110.5 247t281.5 191l6 -19q-101 -48 -172 -125.5t-95 -167.5q28 20 55 31t48 11q74 0 121.5 -48.5t47.5 -128.5q0 -78 -61.5 -137t-151.5 -59zM341 163q0 68 -31 112.5t-72 44.5q-21 0 -34 -5.5t-29 -20.5q-5 -22 -7.5 -47.5 t-2.5 -54.5q0 -84 24 -129t70 -45q37 0 59.5 44t22.5 101z" />
<glyph unicode="7" horiz-adv-x="483" d="M48 402h-3v193h408l-328 -635l-32 16l246 499h-243z" />
<glyph unicode="8" horiz-adv-x="495" d="M158 294q-48 25 -74.5 64.5t-26.5 85.5q0 70 54 118t139 48q61 0 100.5 -33.5t39.5 -89.5q0 -39 -17.5 -70t-56.5 -60q65 -32 97 -77t32 -104q0 -84 -64 -137.5t-157 -53.5q-79 0 -126.5 39.5t-47.5 105.5q0 48 25.5 87.5t82.5 76.5zM142 486q0 -22 14 -40t46 -35 q17 -10 50 -24.5t42 -18.5q31 25 45.5 50.5t14.5 56.5q0 52 -30.5 81t-82.5 29q-43 0 -71 -27t-28 -72zM353 124q0 34 -13.5 59.5t-42.5 44.5q-23 15 -67.5 34t-45.5 19q-45 -26 -71.5 -65.5t-26.5 -81.5q0 -53 38 -88.5t101 -35.5q59 0 93.5 30.5t34.5 83.5z" />
<glyph unicode="9" horiz-adv-x="503" d="M256 610q85 0 137.5 -56t52.5 -149q0 -126 -110.5 -247t-281.5 -191l-6 19q101 48 172 125.5t95 167.5q-28 -20 -55 -31t-48 -11q-74 0 -121.5 48.5t-47.5 128.5q0 78 61.5 137t151.5 59zM155 435q0 -68 31 -112.5t72 -44.5q21 0 34 5.5t29 20.5q5 22 7.5 47.5t2.5 54.5 q0 84 -24 129t-70 45q-37 0 -59.5 -44t-22.5 -101z" />
<glyph unicode=":" horiz-adv-x="181" d="M9 335l82 93l81 -93l-81 -92zM9 66l82 93l81 -93l-81 -92z" />
<glyph unicode=";" horiz-adv-x="243" d="M45 351l82 93l81 -93l-81 -92zM126 159q31 -20 54 -48t23 -49q0 -45 -33 -90.5t-107 -94.5l-13 10q30 26 46 53t16 51q0 11 -4 20.5t-24 31.5l-37 31z" />
<glyph unicode="&#x3c;" horiz-adv-x="516" d="M39 292l426 173v-72l-335 -141l335 -140v-72l-426 172h-2v81z" />
<glyph unicode="=" horiz-adv-x="487" d="M426 405v-72h-381v72h381zM426 201v-72h-381v72h381z" />
<glyph unicode="&#x3e;" horiz-adv-x="516" d="M472 212l-426 -172v72l335 140l-335 141v72l426 -173l1 1v-81h-1z" />
<glyph unicode="?" horiz-adv-x="504" d="M106 525l-8 -1l-23 171h82q155 0 224.5 -38t69.5 -117q0 -39 -21.5 -73t-64.5 -63q-33 -22 -88.5 -47t-62.5 -29l-11 -108h-23l-17 122q63 23 103 72.5t40 103.5q0 69 -19 104.5t-55 35.5q-46 0 -76 -31t-50 -102zM112 66l81 93l81 -93l-81 -92z" />
<glyph unicode="@" horiz-adv-x="685" d="M653 250q0 -42 -9 -77t-29 -71l-301 -29l47 137q-49 -61 -93.5 -94t-79.5 -33q-36 0 -55 22.5t-19 66.5q0 49 24.5 99t68.5 89q43 40 94 60t101 17l38 -3l85 5l-99 -294l47 -26l125 11q14 30 20 59t6 60q0 120 -85 205t-205 85t-205 -85t-85 -205t85 -205t205 -85 q62 0 118 25.5t98 71.5l20 -20q-45 -50 -107 -77.5t-129 -27.5q-132 0 -225.5 93.5t-93.5 225.5t93.5 225.5t225.5 93.5t225.5 -93.5t93.5 -225.5zM202 235q0 -34 12 -48t43 -14q25 0 60.5 25t57.5 57l56 155q-89 10 -159 -43.5t-70 -131.5z" />
<glyph unicode="A" horiz-adv-x="727" d="M412 0l87 69l-58 145h-247l-52 -136l91 -78h-211l68 79l242 616h44l258 -628l71 -67h-293zM315 533l-104 -274h213z" />
<glyph unicode="B" horiz-adv-x="630" d="M110 106v475l-57 104h218q135 0 202 -37.5t67 -113.5q0 -52 -36 -91.5t-115 -70.5q96 -23 144.5 -70t48.5 -119q0 -87 -87.5 -135t-231.5 -48h-210zM417 514q0 69 -37.5 104t-112.5 35h-33v-275q86 0 134.5 36.5t48.5 99.5zM442 186q0 86 -49.5 126.5t-158.5 40.5v-314 h30q79 0 128.5 40t49.5 107z" />
<glyph unicode="C" horiz-adv-x="651" d="M405 685h149v-203h-6q-35 78 -87 120t-115 42q-76 0 -117.5 -63.5t-41.5 -174.5q0 -138 52.5 -219.5t145.5 -81.5q66 0 116.5 28.5t86.5 87.5l14 -10q-43 -105 -114 -164t-161 -59q-126 0 -202 91t-76 240q0 72 26 140t74 119q49 52 114.5 79.5t141.5 27.5z" />
<glyph unicode="D" horiz-adv-x="735" d="M126 106v473l-70 106h253q178 0 276.5 -85.5t98.5 -227.5q0 -171 -106.5 -271.5t-284.5 -100.5h-237zM317 653h-67v-615h60q118 0 180.5 82t62.5 224q0 149 -61.5 229t-174.5 80z" />
<glyph unicode="E" horiz-adv-x="592" d="M540 217l-11 -217h-477l57 106v475l-57 104h459v-210h-5l-117 174h-156v-277h260v-45h-260v-291h165l137 183z" />
<glyph unicode="F" horiz-adv-x="562" d="M51 6l58 100v475l-58 104h460v-210h-4l-118 174h-157v-280h253v-46h-253v-217l102 -106h-283v6z" />
<glyph unicode="G" horiz-adv-x="687" d="M648 309v-10l-50 -37v-268h-15l-90 53q-42 -30 -83 -45t-82 -15q-126 0 -202 91t-76 240q0 72 26 140t74 119q49 52 114.5 79.5t141.5 27.5h149v-203h-13q-50 93 -96 127.5t-106 34.5q-73 0 -110.5 -60.5t-37.5 -177.5q0 -167 52 -256t153 -89q17 0 39.5 5t39.5 14v165 l-100 54v11h272z" />
<glyph unicode="H" horiz-adv-x="780" d="M652 106l70 -106h-265l71 106v227h-287v-227l71 -106h-265l70 106v474l-69 105h265l-72 -106v-201h287v202l-70 105h265l-71 -106v-473z" />
<glyph unicode="I" horiz-adv-x="358" d="M311 0h-264l70 106v473l-70 106h264l-70 -106v-473z" />
<glyph unicode="J" horiz-adv-x="338" d="M37 685h264l-70 -106v-575q0 -44 -37 -91.5t-101 -88.5l-7 4q9 19 15 47t6 52v652z" />
<glyph unicode="K" horiz-adv-x="769" d="M427 0l43 63l-179 261l-40 -42v-176l71 -106h-265l71 106v474l-71 106h265l-71 -106v-235l139 147l107 119l-30 75h221l-139 -90l-166 -175l245 -345l112 -76h-313z" />
<glyph unicode="L" horiz-adv-x="610" d="M567 217l-10 -217h-504l57 106v475l-57 104h253l-72 -105v-535h198l131 172h4z" />
<glyph unicode="M" horiz-adv-x="916" d="M171 96l73 -96h-195l73 96v485l-81 104h188l227 -500l205 500h199l-71 -82v-498l72 -105h-276l80 104v483l-246 -599h-7l-241 520v-412z" />
<glyph unicode="N" horiz-adv-x="756" d="M634 58l41 -58h-148l-349 489v-403l81 -86h-196l70 93v465l-92 127h157l390 -571v485l-82 86h198l-70 -93v-534z" />
<glyph unicode="O" horiz-adv-x="738" d="M51 313q0 168 97.5 276.5t256.5 108.5q121 0 201.5 -95.5t80.5 -229.5q0 -168 -97.5 -276.5t-256.5 -108.5q-121 0 -201.5 95.5t-80.5 229.5zM400 30q69 0 111.5 67t42.5 155q0 169 -61 286t-155 117q-73 0 -112.5 -60t-39.5 -161q0 -170 60 -287t154 -117z" />
<glyph unicode="P" horiz-adv-x="588" d="M52 0l71 106v473l-71 106h229q119 0 192 -47.5t73 -135.5q0 -80 -60.5 -136.5t-151.5 -68.5q-20 -3 -43.5 -5t-43.5 -2v-184l85 -106h-280zM247 324q80 0 121.5 42.5t41.5 123.5t-41.5 123t-121.5 42v-331z" />
<glyph unicode="Q" horiz-adv-x="738" d="M687 373q0 -101 -38.5 -185t-109.5 -134l37 -173l-4 -6q-46 17 -94.5 46t-106.5 74q-14 -1 -22.5 -1.5t-15.5 -0.5q-122 0 -202 93.5t-80 226.5q0 167 97 273.5t257 106.5q122 0 202 -93.5t80 -226.5zM400 35q70 0 112 65t42 152q0 168 -61 283t-155 115 q-73 0 -112.5 -58t-39.5 -158q0 -169 60 -284t154 -115z" />
<glyph unicode="R" horiz-adv-x="696" d="M422 339l148 -241l101 -98h-193q-111 197 -136.5 239.5t-46.5 72.5l-45 -4v-202l70 -106h-265l71 106v473l-71 106h229q133 0 209.5 -45.5t76.5 -131.5q0 -53 -39.5 -97.5t-108.5 -71.5zM250 341q78 2 129 44t51 111q0 79 -45 119t-135 40v-314z" />
<glyph unicode="S" horiz-adv-x="541" d="M247 -8q-49 0 -102.5 10t-86.5 26l-12 240h12q25 -103 86.5 -170.5t133.5 -67.5q42 0 70.5 28.5t28.5 71.5q0 31 -12 56.5t-37 47.5q-15 12 -35.5 24.5t-67.5 34.5q-55 27 -80 43t-43 33q-27 26 -40 58.5t-13 72.5q0 82 56 133.5t150 51.5h136l46 15v-216l-12 1 q-23 78 -74.5 123t-117.5 45q-41 0 -66 -24.5t-25 -66.5t29 -74.5t126 -80.5q55 -27 81 -43t44 -32q31 -27 45.5 -58.5t14.5 -69.5q0 -100 -63.5 -156t-171.5 -56z" />
<glyph unicode="T" horiz-adv-x="660" d="M34 466v219h577v-219l-6 -1l-127 185h-96v-544l71 -106h-265l70 106v543h-92l-128 -184z" />
<glyph unicode="U" horiz-adv-x="781" d="M729 685l-86 -90l-1 -3v-315q0 -58 -7.5 -96t-31.5 -85q-28 -52 -82 -81.5t-124 -29.5q-136 0 -203.5 60t-67.5 176v359l-69 105h265l-71 -106v-343q0 -106 39.5 -154.5t141.5 -48.5q82 0 123 67.5t41 200.5v294l-81 90h214z" />
<glyph unicode="V" horiz-adv-x="681" d="M381 138l161 461l-81 86h199l-67 -89l-227 -616h-46l-251 646l-50 59h260l-76 -61l166 -439z" />
<glyph unicode="W" horiz-adv-x="1005" d="M720 141l143 457l-82 87h199l-64 -86l-204 -611h-58l-138 389l-136 -389h-58l-236 638l-49 59h260l-77 -61l157 -439l9 -37l109 288l-69 192l-47 57h260l-78 -61l148 -439z" />
<glyph unicode="X" horiz-adv-x="722" d="M466 99l-137 195l-137 -200l76 -94h-247l100 104l174 237l-166 238l-98 106h301l-77 -97l128 -175l118 171l-69 101h247l-112 -103l-152 -211l188 -265l102 -106h-324z" />
<glyph unicode="Y" horiz-adv-x="689" d="M406 106l70 -106h-264l70 106v175l-169 298l-87 106h306l-81 -106h-1l112 -189l15 -33l125 224l-81 104h242l-98 -94l-159 -273v-212z" />
<glyph unicode="Z" horiz-adv-x="668" d="M609 216l-11 -217h-547l-7 12l399 627h-227l-126 -173h-4l6 229l101 -10h408l7 -14l-404 -626h270l131 172h4z" />
<glyph unicode="[" horiz-adv-x="214" d="M10 711h181v-46h-127v-769h127v-56h-181v871z" />
<glyph unicode="\" horiz-adv-x="432" d="M111 695l297 -695h-74l-297 695h74z" />
<glyph unicode="]" horiz-adv-x="214" d="M10 -160v46h127v779h-127v46h181v-871h-181z" />
<glyph unicode="^" horiz-adv-x="466" d="M273 694l188 -412h-72l-156 328l-156 -328h-72l188 412v1h81z" />
<glyph unicode="_" horiz-adv-x="556" d="M543 -60h-530v60h530v-60z" />
<glyph unicode="`" horiz-adv-x="192" d="M156 552l-123 129h120l18 -129h-15z" />
<glyph unicode="a" d="M323 373q-22 -89 -64 -185t-99 -188l-74 -11q-24 17 -40.5 66.5t-16.5 107.5q0 147 86.5 235.5t236.5 91.5h114l-38 -54v-350l74 -86h-191v257zM313 461q-78 -1 -119 -64.5t-41 -179.5q0 -65 6.5 -102.5t16.5 -37.5q8 0 34.5 56.5t52.5 128.5q24 65 37 116.5t13 82.5z " />
<glyph unicode="b" horiz-adv-x="499" d="M189 150q26 103 56.5 192t59.5 148l99 18q29 -45 47.5 -109.5t18.5 -127.5q0 -118 -90.5 -194.5t-239.5 -76.5h-66v576l-68 77l183 57v-560zM298 399q-8 0 -29 -53t-42 -126q-18 -62 -28 -112t-10 -79q78 1 117.5 47.5t39.5 140.5q0 70 -16 126t-32 56z" />
<glyph unicode="c" horiz-adv-x="381" d="M283 504l70 -140l-3 -4l-159 67q-13 0 -24.5 -52t-11.5 -106q0 -100 18 -155t51 -55q26 0 63 46.5t70 122.5l16 -10q-34 -100 -91.5 -165t-105.5 -65q-68 0 -107.5 51.5t-39.5 143.5q0 108 73 202t171 119h10z" />
<glyph unicode="d" horiz-adv-x="517" d="M434 710v-640l74 -70l-191 -9v266l12 116q-22 -89 -64 -185t-99 -188l-74 -11q-25 18 -44 68.5t-19 105.5q0 134 78 222.5t212 102.5v88l-68 77zM319 461q-80 -1 -123 -67t-43 -177q0 -62 8.5 -101t20.5 -39q8 0 34.5 56.5t52.5 128.5q24 65 37 116.5t13 82.5z" />
<glyph unicode="e" horiz-adv-x="417" d="M231 59q20 0 42 17t45 51q16 23 29.5 48t24.5 52l16 -10q-26 -86 -88 -157.5t-123 -71.5q-70 0 -109 52.5t-39 147.5q0 50 15.5 102.5t43.5 97.5q34 55 77.5 85t88.5 30q25 0 46 -8.5t38 -25.5q18 -17 29.5 -41.5t11.5 -39.5l-220 -189q7 -64 26.5 -102t45.5 -38z M204 472q-25 -15 -37 -66t-12 -138q0 -9 0.5 -19t1.5 -26l115 109q-1 22 -5 43t-11 39q-12 29 -28 46.5t-24 11.5z" />
<glyph unicode="f" horiz-adv-x="370" d="M348 704l38 -131l-3 -3l-147 76q-22 0 -32 -51.5t5 -104.5h161v-24l-161 -30v-180q0 -78 -5.5 -138.5t-16.5 -109.5q-10 -44 -36 -116t-39 -121h-8l-10 431v225l-70 63h75q0 21 22 59t55 71q29 29 62.5 48t68.5 27z" />
<glyph unicode="g" horiz-adv-x="492" d="M322 373q-22 -89 -64 -185t-99 -188l-74 -11q-24 17 -40.5 66.5t-16.5 107.5q0 146 87 235t236 92h114l-38 -55q0 -28 -0.5 -60t-0.5 -97t-0.5 -97t-0.5 -60v-8h1l-2 -26v-12q0 -55 -25.5 -109.5t-71.5 -99.5q-47 -46 -103.5 -72.5t-106.5 -26.5h-6l-111 136l6 7 q40 -33 99.5 -58t93.5 -25q58 0 84 47.5t27 150.5v232zM312 461q-78 -1 -119 -64.5t-41 -179.5q0 -65 6.5 -102.5t16.5 -37.5q8 0 34.5 56.5t52.5 128.5q24 65 37 116.5t13 82.5z" />
<glyph unicode="h" horiz-adv-x="533" d="M72 576l-68 77l183 57v-542q23 88 66.5 186t71.5 136l98 25q19 -58 23.5 -107t4.5 -206v-116l74 -86h-189v144q0 99 -5 163.5t-15 101.5l-8 1q-53 -104 -87 -201t-34 -148l15 -61h-130v576z" />
<glyph unicode="i" horiz-adv-x="274" d="M48 639l84 92l83 -92l-83 -93zM12 433l183 67v-414l74 -86h-189v356z" />
<glyph unicode="j" horiz-adv-x="283" d="M73 639l82 92l81 -92l-81 -93zM101 356l-65 77l179 67v-494q0 -57 -33.5 -116.5t-96.5 -114.5l-6 3q11 14 16.5 56t5.5 103v419z" />
<glyph unicode="k" horiz-adv-x="532" d="M80 576l-68 77l183 57v-559q29 70 84.5 163t125.5 189l7 1l75 -167l-5 -2l-128 44q-5 -9 -12.5 -19.5t-22.5 -34.5q-9 -14 -14 -21t-9 -13q4 -6 81 -113t109 -142l42 -46l-2 -2q-53 3 -89.5 11.5t-60.5 23.5q-18 17 -36.5 38.5t-50.5 64.5q-20 28 -30.5 41.5t-20.5 24.5 q-22 -42 -32.5 -74.5t-10.5 -56.5l22 -61h-137v576z" />
<glyph unicode="l" horiz-adv-x="274" d="M12 517l68 29v30l-68 77l183 57v-624l74 -86h-189v440z" />
<glyph unicode="m" horiz-adv-x="806" d="M78 356l-68 77l183 67v-332q23 88 66.5 186t71.5 136l98 25q19 -58 23.5 -107t4.5 -206v-30q23 87 66 183.5t71 134.5l98 25q19 -58 23.5 -107t4.5 -206v-116l74 -83h-189v141q0 105 -5.5 172t-17.5 103q-48 -92 -83.5 -187.5t-41.5 -151.5v-23l14 -57h-129v144 q0 99 -5 163.5t-15 101.5l-8 1q-53 -104 -87 -201t-34 -148l15 -61h-130v356z" />
<glyph unicode="n" horiz-adv-x="543" d="M78 356l-68 77l183 67v-332q23 88 66.5 186t71.5 136l98 25q19 -58 23.5 -107t4.5 -206v-116l74 -86h-189v144q0 99 -5 163.5t-15 101.5l-8 1q-53 -104 -87 -201t-34 -148l15 -61h-130v356z" />
<glyph unicode="o" horiz-adv-x="501" d="M472 285q0 -118 -76.5 -208.5t-177.5 -90.5q-84 0 -136.5 58t-52.5 155q0 125 70 214t172 89q93 0 147 -58.5t54 -158.5zM340 240q0 39 -5 73t-15 62q-16 43 -41 69t-47 26q-37 0 -57 -52t-20 -152q0 -38 4.5 -73t13.5 -65q15 -48 37.5 -78.5t40.5 -30.5q20 0 40.5 25.5 t33.5 69.5q7 26 11 58t4 68z" />
<glyph unicode="p" horiz-adv-x="508" d="M195 174q21 83 50.5 163.5t65.5 152.5l99 18q29 -45 47.5 -109.5t18.5 -127.5q0 -114 -78.5 -204t-202.5 -106v-120l74 -56h-213l24 66v520l-68 77l183 57v-331zM304 399q-8 0 -29.5 -50t-42.5 -119q-17 -57 -27 -104.5t-10 -75.5v-63q76 1 116.5 62.5t40.5 167.5 q0 70 -16 126t-32 56z" />
<glyph unicode="q" d="M329 373q-22 -89 -64 -185t-99 -188l-74 -11q-25 18 -44 68.5t-19 105.5q0 144 89.5 234t239.5 93h76v-628l68 -77h-218l35 60l-2 155v257zM319 461q-80 -1 -123 -67t-43 -177q0 -62 8.5 -101t20.5 -39q8 0 34.5 56.5t52.5 128.5q24 65 37 116.5t13 82.5z" />
<glyph unicode="r" horiz-adv-x="409" d="M337 504l84 -165l-3 -4l-132 36q-7 -3 -27 -49.5t-38 -100.5q-17 -50 -25.5 -91t-8.5 -69l8 -61h-123v356l-68 77l183 67v-318q24 94 60.5 179.5t76.5 142.5h13z" />
<glyph unicode="s" horiz-adv-x="343" d="M214 490h71l5 -148l-6 -1q-30 47 -65.5 74t-66.5 27q-19 0 -27 -8.5t-8 -29.5q0 -17 15.5 -37t69.5 -64q70 -57 92.5 -89.5t22.5 -63.5q0 -62 -51 -106t-134 -44h-82l-24 170l3 9q54 -79 91 -110t72 -31q23 0 34.5 10t11.5 30q0 25 -18 50.5t-77 70.5q-63 49 -82.5 78 t-19.5 58q0 62 49.5 108.5t123.5 46.5z" />
<glyph unicode="t" horiz-adv-x="364" d="M185 490h159v-11l-159 -51v-250q0 -63 9 -89.5t38 -26.5q22 0 51 42t47 96l11 -4q-22 -86 -68 -147t-91 -61q-57 0 -84.5 40t-28.5 119v284l-68 59h71l113 170v-170z" />
<glyph unicode="u" horiz-adv-x="522" d="M441 77l68 -77h-183v322q-23 -88 -66.5 -186t-71.5 -136l-90 -8q-11 59 -15 97.5t-4 73.5v241l-74 86l189 20v-164q0 -106 1.5 -170.5t5.5 -102.5q53 103 89 203.5t36 152.5l-15 61h130v-413z" />
<glyph unicode="v" horiz-adv-x="435" d="M352 435l-60 49v6h143q-5 -65 -26 -142.5t-53 -145.5q-40 -88 -90.5 -144t-106.5 -73l-66 373l-93 69l180 95l76 -439q30 28 54 70.5t39 95.5q17 62 18 117.5t-15 68.5z" />
<glyph unicode="w" horiz-adv-x="707" d="M624 435l-60 49v6h143q-5 -65 -26 -142.5t-53 -145.5q-40 -88 -90.5 -144t-106.5 -73l-49 278q-42 -112 -100 -185t-123 -93l-66 373l-93 69l180 95l75 -440l-1 -4q49 46 80 122.5t32 150.5q-2 10 -4.5 21.5t-8.5 40.5q-6 26 -9.5 43t-7.5 34h120l71 -408l-1 -4 q31 27 55 70.5t39 97.5q18 63 19 119.5t-15 69.5z" />
<glyph unicode="x" horiz-adv-x="541" d="M435 65l84 -65h-168l-129 213q-53 -72 -67.5 -103t-14.5 -55l60 -55h-152q12 34 40 78t119 159l-114 190l-73 63h168l114 -196q19 27 30 43.5l15 22.5q11 20 16.5 38.5t5.5 36.5l-65 55h143q-17 -47 -49 -101.5t-82 -118.5z" />
<glyph unicode="y" horiz-adv-x="516" d="M35 -90q40 -33 99.5 -58t93.5 -25q58 0 84 47.5t27 150.5v226q-41 -108 -96.5 -177t-118.5 -89l-37 426l-82 79h185l32 -405q55 52 86.5 148t31.5 187v70h113v-415q0 -55 -25.5 -109.5t-71.5 -99.5q-47 -46 -103.5 -72.5t-106.5 -26.5h-6l-111 136z" />
<glyph unicode="z" horiz-adv-x="425" d="M52 498l47 -8h313l-232 -328q28 20 59 30.5t61 10.5q55 0 85 -31t30 -87q0 -54 -22 -110t-62 -101q-41 -48 -93 -73.5t-108 -25.5q-36 0 -67 11.5t-59 34.5l12 18q38 -28 62.5 -36t53.5 -8q79 0 132 46.5t53 123.5q0 58 -26 92.5t-71 34.5q-43 0 -76 -11t-48 -31l-48 -62 h-25l280 391h-203l-61 -103l-6 -1z" />
<glyph unicode="{" horiz-adv-x="296" d="M163 377q-8 -16 -19.5 -30t-26.5 -26q-16 -13 -38.5 -24.5t-23.5 -12.5v-4q1 -1 23.5 -12.5t37.5 -24.5q16 -12 27.5 -26t19.5 -30q7 -16 11 -34t4 -38q0 -13 -1.5 -24.5t-7.5 -31.5q-6 -24 -8 -40t-2 -35q0 -61 20.5 -93t58.5 -32v-21q-79 0 -116 38.5t-37 119.5 q0 11 2 24.5t7 42.5q7 32 9 48t2 29q0 33 -12.5 61t-35.5 47q-9 7 -16.5 10.5t-23.5 8.5v30q16 5 23.5 8.5t16.5 10.5q23 19 35.5 47t12.5 61q0 13 -2 29t-9 48q-5 29 -7 42.5t-2 24.5q0 81 37 119.5t117 38.5v-21q-39 0 -59.5 -32t-20.5 -93q0 -19 2 -35t8 -40 q6 -20 7.5 -31.5t1.5 -24.5q0 -20 -4 -38t-11 -34z" />
<glyph unicode="|" horiz-adv-x="323" d="M188 -150h-89v850h89v-850z" />
<glyph unicode="}" horiz-adv-x="296" d="M101 187q8 16 19.5 30t26.5 26q16 13 38.5 24.5t23.5 12.5v4q-1 1 -23.5 12.5t-37.5 24.5q-16 12 -27.5 26t-19.5 30q-7 16 -11 34t-4 38q0 13 1.5 24.5t7.5 31.5q6 24 8 40t2 35q0 61 -20.5 93t-58.5 32v21q79 0 116 -38.5t37 -119.5q0 -11 -2 -24.5t-7 -42.5 q-7 -32 -9 -48t-2 -29q0 -33 12.5 -61t35.5 -47q9 -7 16.5 -10.5t23.5 -8.5v-30q-16 -5 -23.5 -8.5t-16.5 -10.5q-23 -19 -35.5 -47t-12.5 -61q0 -13 2 -29t9 -48q5 -29 7 -42.5t2 -24.5q0 -81 -37 -119.5t-117 -38.5v21q39 0 59.5 32t20.5 93q0 19 -2 35t-8 40 q-6 20 -7.5 31.5t-1.5 24.5q0 20 4 38t11 34z" />
<glyph unicode="~" horiz-adv-x="399" d="M271 552l44 34l15 -6l-59 -103l-148 13l-40 -43l-14 9l63 109z" />
<glyph unicode="&#xa1;" horiz-adv-x="217" d="M190 411l-82 -93l-81 93l81 92zM50 -180l46 437h34l47 -437l-64 -46z" />
<glyph unicode="&#xa2;" horiz-adv-x="448" d="M304 550h105v-136h-5q-23 35 -49.5 58.5t-56.5 33.5l-43 -335q8 -2 16 -3t18 -1q44 0 82.5 28t50.5 62l11 -4q-21 -82 -73.5 -139.5t-120.5 -64.5l-14 -107h-36l10 107q-79 8 -126.5 74t-47.5 162q0 99 60 174t160 88l10 102h62zM242 515q-50 -3 -76 -39t-26 -100 q0 -69 18.5 -116t53.5 -71z" />
<glyph unicode="&#xa4;" horiz-adv-x="466" d="M114 397l-64 61l30 32l65 -62q20 14 42 21.5t46 7.5q23 0 45 -7t41 -21l64 61l30 -32l-62 -59q15 -19 22.5 -42t7.5 -48t-8 -48.5t-23 -43.5l63 -60l-30 -32l-65 62q-18 -13 -39.5 -19.5t-45.5 -6.5q-23 0 -45.5 7t-41.5 20l-66 -63l-30 32l65 62q-15 19 -22.5 42 t-7.5 48q0 24 7.5 46.5t21.5 41.5zM340 309q0 44 -31.5 75t-75.5 31t-75 -31t-31 -75t31 -75t75 -31t75.5 31t31.5 75z" />
<glyph unicode="&#xa8;" horiz-adv-x="411" d="M51 622l62 76l61 -76l-61 -77zM236 622l62 76l61 -76l-61 -77z" />
<glyph unicode="&#xab;" horiz-adv-x="512" d="M97 246h85l107 -218l-10 -10l-235 228l235 228l10 -17zM308 246h84l107 -218l-9 -10l-236 228l236 228l9 -17z" />
<glyph unicode="&#xad;" horiz-adv-x="446" d="M420 243h-394v66h394v-66z" />
<glyph unicode="&#xaf;" horiz-adv-x="330" d="M280 601h-220v39h220v-39z" />
<glyph unicode="&#xb2;" horiz-adv-x="361" d="M336 585l-14 -153h-284l-5 21q82 61 132.5 134t50.5 137q0 31 -19.5 48.5t-53.5 17.5q-32 0 -55.5 -21t-42.5 -69h-3v110h91q77 0 126 -26.5t49 -71.5q0 -29 -17.5 -56.5t-56.5 -59.5q-10 -8 -51 -39t-59 -51l2 -3q8 1 16 1.5t16 1.5l137 2l39 77h2z" />
<glyph unicode="&#xb3;" horiz-adv-x="340" d="M318 545q0 -31 -30 -56.5t-88 -44.5q-38 -12 -83.5 -20t-76.5 -8l-5 19q74 0 125 23.5t51 64.5q0 35 -26.5 56.5t-85.5 31.5q-3 0 -10 -1.5t-11 -2.5l-2 11l23 7q73 25 97.5 46.5t24.5 47.5q0 30 -22.5 48t-59.5 18q-28 0 -48.5 -18t-43.5 -70h-3v108h104 q79 0 121.5 -19.5t42.5 -57.5q0 -30 -35.5 -53.5t-114.5 -45.5q76 -6 116 -27.5t40 -56.5z" />
<glyph unicode="&#xb4;" horiz-adv-x="204" d="M48 552h-15l18 129h120z" />
<glyph unicode="&#xb6;" horiz-adv-x="583" d="M247 -100q9 18 13 38.5t4 52.5v280l4 43q-11 -5 -26.5 -8t-28.5 -3q-80 0 -135.5 53.5t-55.5 133.5q0 97 61.5 146t180.5 49l1 -1h39v1h138v-2h87l-69 -77v-606h-66v641h-64v-617q0 -45 -26.5 -82.5t-53.5 -43.5z" />
<glyph unicode="&#xb7;" horiz-adv-x="181" d="M9 263l82 93l81 -93l-81 -92z" />
<glyph unicode="&#xb8;" horiz-adv-x="249" d="M58 -72l51 80h26l-21 -42q48 -11 71.5 -26.5t23.5 -35.5q0 -27 -29.5 -48.5t-66.5 -21.5q-21 0 -39 7t-36 22l9 13q16 -12 33.5 -18t36.5 -6q21 0 34 7t13 19q0 14 -12.5 22t-93.5 28z" />
<glyph unicode="&#xb9;" horiz-adv-x="329" d="M68 673l-1 1l146 140v-346l64 -42h-203l59 42v228z" />
<glyph unicode="&#xbb;" horiz-adv-x="512" d="M210 246h-84l-107 218l9 10l236 -228l-236 -228l-9 17zM421 246h-85l-107 218l10 10l235 -228l-235 -228l-10 17z" />
<glyph unicode="&#xbc;" horiz-adv-x="745" d="M622 719l-430 -752h-43l429 752h44zM68 544l-1 1l146 140v-346l64 -42h-203l59 42v228zM637 123h87v-29h-87v-52l64 -42h-203l59 42v53h-164l162 284h97l-190 -255h94v51l81 113v-165z" />
<glyph unicode="&#xbd;" horiz-adv-x="782" d="M581 719l-430 -752h-43l429 752h44zM53 544l-1 1l146 140v-346l64 -42h-203l59 42v228zM729 153l-14 -153h-284l-5 21q82 61 132.5 134t50.5 137q0 31 -19.5 48.5t-53.5 17.5q-32 0 -55.5 -21t-42.5 -69h-3v110h91q77 0 126 -26.5t49 -71.5q0 -29 -17.5 -56.5 t-56.5 -59.5q-10 -8 -51 -39t-59 -51l2 -3l32 3l137 2l39 77h2z" />
<glyph unicode="&#xbe;" horiz-adv-x="807" d="M657 719l-430 -752h-43l429 752h44zM333 425q0 -31 -30 -56.5t-88 -44.5q-38 -12 -83.5 -20t-76.5 -8l-5 19q74 0 125 23.5t51 64.5q0 35 -26.5 56.5t-85.5 31.5q-3 0 -10 -1.5t-11 -2.5l-2 11l23 7q73 25 97.5 46.5t24.5 47.5q0 30 -22.5 48t-59.5 18q-28 0 -48.5 -18 t-43.5 -70h-3v108h104q79 0 121.5 -19.5t42.5 -57.5q0 -30 -35.5 -53.5t-114.5 -45.5q76 -6 116 -27.5t40 -56.5zM672 123h87v-29h-87v-52l64 -42h-203l59 42v53h-164l162 284h97l-190 -255h94v51l81 113v-165z" />
<glyph unicode="&#xbf;" horiz-adv-x="504" d="M333 501l81 -92l-81 -93l-81 93zM420 -50l8 1l23 -171h-82q-155 0 -224.5 38t-69.5 117q0 39 21.5 73t64.5 63q33 22 88.5 47t62.5 29l11 108h23l17 -122q-63 -23 -103 -72.5t-40 -103.5q0 -69 19 -104.5t55 -35.5q46 0 76 31t50 102z" />
<glyph unicode="&#xc0;" horiz-adv-x="730" d="M354 740l-123 129h125l12 -129h-14zM201 214l-52 -136l91 -78h-211l68 79l242 616h44l258 -628l71 -67h-293l87 69l-58 145h-247zM433 254l-111 279l-106 -279h217z" />
<glyph unicode="&#xc1;" horiz-adv-x="730" d="M361 740h-14l13 129h124zM201 214l-52 -136l91 -78h-211l68 79l242 616h44l258 -628l71 -67h-293l87 69l-58 145h-247zM433 254l-111 279l-106 -279h217z" />
<glyph unicode="&#xc2;" horiz-adv-x="730" d="M263 740l59 129h79l60 -129h-14l-85 70l-84 -70h-15zM201 214l-52 -136l91 -78h-211l68 79l242 616h44l258 -628l71 -67h-293l87 69l-58 145h-247zM433 254l-111 279l-106 -279h217z" />
<glyph unicode="&#xc3;" horiz-adv-x="727" d="M428 840q8 0 17 7t25 27l14 -6l-56 -101q-3 0 -59 5.5t-88 5.5q-7 0 -16.5 -10.5t-21.5 -32.5l-13 9l60 107q2 0 55 -5.5t83 -5.5zM412 0l87 69l-58 145h-247l-52 -136l91 -78h-211l68 79l242 616h44l258 -628l71 -67h-293zM315 533l-104 -274h213z" />
<glyph unicode="&#xc4;" horiz-adv-x="730" d="M169 830l73 87l74 -87l-74 -88zM391 830l74 87l73 -87l-73 -88zM201 214l-52 -136l91 -78h-211l68 79l242 616h44l258 -628l71 -67h-293l87 69l-58 145h-247zM433 254l-111 279l-106 -279h217z" />
<glyph unicode="&#xc5;" horiz-adv-x="730" d="M454 829q0 -40 -27.5 -69t-65.5 -29q-39 0 -66.5 28.5t-27.5 69.5t27.5 69.5t66.5 28.5q38 0 65.5 -29t27.5 -69zM421 829q0 26 -17.5 45t-42.5 19t-43 -19t-18 -45t18 -45t43 -19t42.5 19t17.5 45zM201 214l-52 -136l91 -78h-211l68 79l242 616h44l258 -628l71 -67h-293 l87 69l-58 145h-247zM433 254l-111 279l-106 -279h217z" />
<glyph unicode="&#xc6;" horiz-adv-x="910" d="M853 0h-477l57 106v108h-215l-77 -138l79 -76h-199l72 85l306 540l-73 61h188l-1 -1h322v-210h-5l-117 174h-156v-277h260v-40h-260v-296h165l137 183l5 -2zM433 598l-3 3l-13 -26l-177 -321h193v344z" />
<glyph unicode="&#xc7;" horiz-adv-x="651" d="M187 406q0 -138 52.5 -219.5t145.5 -81.5q66 0 116.5 28.5t86.5 87.5l14 -10q-41 -101 -109 -160t-153 -63l-11 -22q22 -9 35 -14.5t16 -7.5q18 -9 26.5 -19t8.5 -21q0 -34 -27 -54.5t-67 -20.5q-22 0 -40 7.5t-38 26.5l11 18q14 -14 31 -21t38 -7t35 6.5t14 16.5 q0 11 -10.5 19t-34.5 14l-30 6t-29 6v3l43 64q-120 7 -191 97t-71 234q0 72 26 140t74 119q49 52 114.5 79.5t141.5 27.5h149v-203h-6q-35 78 -87 120t-115 42q-76 0 -117.5 -63.5t-41.5 -174.5z" />
<glyph unicode="&#xc8;" horiz-adv-x="592" d="M326 740l-123 129h124l13 -129h-14zM511 475h-5l-117 174h-156v-277h260v-40h-260v-296h165l137 183l5 -2l-11 -217h-477l57 106v475l-57 104h459v-210z" />
<glyph unicode="&#xc9;" horiz-adv-x="592" d="M274 740h-14l12 129h125zM511 475h-5l-117 174h-156v-277h260v-40h-260v-296h165l137 183l5 -2l-11 -217h-477l57 106v475l-57 104h459v-210z" />
<glyph unicode="&#xca;" horiz-adv-x="592" d="M204 740l59 129h79l60 -129h-15l-84 70l-85 -70h-14zM511 475h-5l-117 174h-156v-277h260v-40h-260v-296h165l137 183l5 -2l-11 -217h-477l57 106v475l-57 104h459v-210z" />
<glyph unicode="&#xcb;" horiz-adv-x="592" d="M119 829l74 87l73 -87l-73 -88zM342 829l74 87l72 -87l-72 -88zM511 475h-5l-117 174h-156v-277h260v-40h-260v-296h165l137 183l5 -2l-11 -217h-477l57 106v475l-57 104h459v-210z" />
<glyph unicode="&#xcc;" horiz-adv-x="358" d="M202 740l-123 129h125l12 -129h-14zM311 0h-264l70 106v473l-70 106h264l-70 -106v-473z" />
<glyph unicode="&#xcd;" horiz-adv-x="358" d="M157 740h-14l12 129h125zM311 0h-264l70 106v473l-70 106h264l-70 -106v-473z" />
<glyph unicode="&#xce;" horiz-adv-x="358" d="M83 740l59 129h79l60 -129h-14l-85 70l-85 -70h-14zM311 0h-264l70 106v473l-70 106h264l-70 -106v-473z" />
<glyph unicode="&#xcf;" horiz-adv-x="446" d="M39 830l73 87l74 -87l-74 -88zM260 830l74 87l73 -87l-73 -88zM355 0h-264l70 106v473l-70 106h264l-70 -106v-473z" />
<glyph unicode="&#xd0;" horiz-adv-x="708" d="M111 378v201l-71 106h254q177 0 270.5 -80t93.5 -223q0 -179 -101 -280.5t-279 -101.5h-238l71 106v222h-71v50h71zM374 328h-139v-290h60q114 0 171.5 77t57.5 229q0 153 -56 231t-167 78h-66v-275h139v-50z" />
<glyph unicode="&#xd1;" horiz-adv-x="756" d="M448 808q9 0 18.5 7.5t23.5 26.5l14 -6l-56 -101l-57 5.5t-89 5.5q-7 0 -15.5 -8.5t-23.5 -34.5l-13 9l60 107q2 0 55 -5.5t83 -5.5zM634 58l41 -58h-148l-349 489v-403l81 -86h-196l70 93v465l-92 127h157l390 -571v485l-82 86h198l-70 -93v-534z" />
<glyph unicode="&#xd2;" horiz-adv-x="738" d="M339 740l-123 129h124l13 -129h-14zM51 313q0 168 97.5 276.5t256.5 108.5q121 0 201.5 -95.5t80.5 -229.5q0 -168 -97.5 -276.5t-256.5 -108.5q-121 0 -201.5 95.5t-80.5 229.5zM400 30q69 0 111.5 67t42.5 155q0 169 -61 286t-155 117q-73 0 -112.5 -60t-39.5 -161 q0 -170 60 -287t154 -117z" />
<glyph unicode="&#xd3;" horiz-adv-x="738" d="M347 740h-14l12 129h125zM51 313q0 168 97.5 276.5t256.5 108.5q121 0 201.5 -95.5t80.5 -229.5q0 -168 -97.5 -276.5t-256.5 -108.5q-121 0 -201.5 95.5t-80.5 229.5zM400 30q69 0 111.5 67t42.5 155q0 169 -61 286t-155 117q-73 0 -112.5 -60t-39.5 -161 q0 -170 60 -287t154 -117z" />
<glyph unicode="&#xd4;" horiz-adv-x="738" d="M268 740l59 129h79l60 -129h-14l-85 70l-85 -70h-14zM51 313q0 168 97.5 276.5t256.5 108.5q121 0 201.5 -95.5t80.5 -229.5q0 -168 -97.5 -276.5t-256.5 -108.5q-121 0 -201.5 95.5t-80.5 229.5zM400 30q69 0 111.5 67t42.5 155q0 169 -61 286t-155 117 q-73 0 -112.5 -60t-39.5 -161q0 -170 60 -287t154 -117z" />
<glyph unicode="&#xd5;" horiz-adv-x="738" d="M280 773q-7 0 -15 -9t-23 -34l-13 9l60 107q2 0 55 -5.5t83 -5.5q9 0 19 8t23 26l14 -6l-56 -101q-3 0 -59 5.5t-88 5.5zM51 313q0 168 97.5 276.5t256.5 108.5q121 0 201.5 -95.5t80.5 -229.5q0 -168 -97.5 -276.5t-256.5 -108.5q-121 0 -201.5 95.5t-80.5 229.5z M400 30q69 0 111.5 67t42.5 155q0 169 -61 286t-155 117q-73 0 -112.5 -60t-39.5 -161q0 -170 60 -287t154 -117z" />
<glyph unicode="&#xd6;" horiz-adv-x="738" d="M180 828l75 87l72 -87l-72 -88zM403 828l75 87l72 -87l-72 -88zM51 313q0 168 97.5 276.5t256.5 108.5q121 0 201.5 -95.5t80.5 -229.5q0 -168 -97.5 -276.5t-256.5 -108.5q-121 0 -201.5 95.5t-80.5 229.5zM400 30q69 0 111.5 67t42.5 155q0 169 -61 286t-155 117 q-73 0 -112.5 -60t-39.5 -161q0 -170 60 -287t154 -117z" />
<glyph unicode="&#xd7;" horiz-adv-x="393" d="M247 254l124 -130l-51 -51l-123 129l-124 -130l-51 57l122 128l-113 119l51 51l112 -118l117 123l51 -57z" />
<glyph unicode="&#xd8;" horiz-adv-x="752" d="M590 630l52 60h64l-82 -96q35 -44 54 -102t19 -119q0 -168 -97.5 -276.5t-256.5 -108.5q-51 0 -96.5 18t-81.5 52l-55 -63h-64l86 100q-34 44 -52.5 101t-18.5 117q0 168 97.5 276.5t256.5 108.5q50 0 94.5 -17.5t80.5 -50.5zM347 655q-73 0 -112 -60t-39 -161 q0 -62 8.5 -119t25.5 -106l276 322q-31 61 -71.5 92.5t-87.5 31.5zM410 30q69 0 111.5 67t42.5 155q0 62 -9.5 120.5t-28.5 108.5l-276 -322q30 -62 71 -95.5t89 -33.5z" />
<glyph unicode="&#xd9;" horiz-adv-x="763" d="M435 740l-122 129h124l13 -129h-15zM56 685h265l-70 -106v-343q0 -106 39.5 -154.5t141.5 -48.5q81 0 122 67.5t41 200.5v294l-73 90h190l-71 -90v-318q0 -60 -8 -98t-31 -83q-27 -52 -81.5 -81.5t-124.5 -29.5q-135 0 -202.5 60t-67.5 176v359z" />
<glyph unicode="&#xda;" horiz-adv-x="763" d="M397 740h-14l12 129h125zM56 685h265l-70 -106v-343q0 -106 39.5 -154.5t141.5 -48.5q81 0 122 67.5t41 200.5v294l-73 90h190l-71 -90v-318q0 -60 -8 -98t-31 -83q-27 -52 -81.5 -81.5t-124.5 -29.5q-135 0 -202.5 60t-67.5 176v359z" />
<glyph unicode="&#xdb;" horiz-adv-x="763" d="M313 740l59 129h79l60 -129h-15l-84 70l-85 -70h-14zM56 685h265l-70 -106v-343q0 -106 39.5 -154.5t141.5 -48.5q81 0 122 67.5t41 200.5v294l-73 90h190l-71 -90v-318q0 -60 -8 -98t-31 -83q-27 -52 -81.5 -81.5t-124.5 -29.5q-135 0 -202.5 60t-67.5 176v359z" />
<glyph unicode="&#xdc;" horiz-adv-x="763" d="M230 828l77 91l77 -91l-77 -92zM463 828l78 91l76 -91l-76 -92zM56 685h265l-70 -106v-343q0 -106 39.5 -154.5t141.5 -48.5q81 0 122 67.5t41 200.5v294l-73 90h190l-71 -90v-318q0 -60 -8 -98t-31 -83q-27 -52 -81.5 -81.5t-124.5 -29.5q-135 0 -202.5 60t-67.5 176 v359z" />
<glyph unicode="&#xdd;" horiz-adv-x="689" d="M350 740l12 129h125l-123 -129h-14zM486 0h-284l80 101v180l-169 298l-87 106h306l-81 -106h-1l112 -189l15 -33l125 224l-81 104h242l-98 -94l-159 -273v-217z" />
<glyph unicode="&#xde;" horiz-adv-x="605" d="M317 685l-70 -106v-21h34q119 0 192 -47.5t73 -135.5q0 -80 -60.5 -136.5t-151.5 -68.5q-20 -3 -43.5 -5t-43.5 -2v-57l85 -106h-280l71 106v473l-71 106h265zM247 197q80 0 121.5 42.5t41.5 123.5t-41.5 123t-121.5 42v-331z" />
<glyph unicode="&#xdf;" horiz-adv-x="584" d="M100 202v225l-70 63h75q0 73 70.5 138.5t152.5 65.5q61 0 92.5 -30t31.5 -89q0 -35 -22.5 -74.5t-79.5 -96.5q89 -65 135 -129.5t46 -124.5q0 -62 -51 -106t-133 -44h-72l10 125h3q15 -39 47 -63t71 -24q24 0 35 12t11 38q0 45 -38.5 98t-145.5 142q66 81 87.5 125.5 t21.5 89.5q0 55 -23 89t-58 34q-52 0 -75.5 -55.5t-5.5 -120.5v-234q0 -78 -5.5 -138.5t-16.5 -109.5q-10 -44 -36 -116t-39 -121h-8z" />
<glyph unicode="&#xe0;" d="M287 552l-123 129h120l18 -129h-15zM323 373q-22 -89 -64 -185t-99 -188l-74 -11q-24 17 -40.5 66.5t-16.5 107.5q0 147 86.5 235.5t236.5 91.5h114l-38 -54v-350l74 -86h-191v257zM313 461q-78 -1 -119 -64.5t-41 -179.5q0 -65 6.5 -102.5t16.5 -37.5q8 0 34.5 56.5 t52.5 128.5q24 65 37 116.5t13 82.5z" />
<glyph unicode="&#xe1;" d="M281 552h-15l18 129h120zM323 373q-22 -89 -64 -185t-99 -188l-74 -11q-24 17 -40.5 66.5t-16.5 107.5q0 147 86.5 235.5t236.5 91.5h114l-38 -54v-350l74 -86h-191v257zM313 461q-78 -1 -119 -64.5t-41 -179.5q0 -65 6.5 -102.5t16.5 -37.5q8 0 34.5 56.5t52.5 128.5 q24 65 37 116.5t13 82.5z" />
<glyph unicode="&#xe2;" d="M191 552l49 129h82l49 -129l-15 3l-75 67l-75 -67zM323 373q-22 -89 -64 -185t-99 -188l-74 -11q-24 17 -40.5 66.5t-16.5 107.5q0 147 86.5 235.5t236.5 91.5h114l-38 -54v-350l74 -86h-191v257zM313 461q-78 -1 -119 -64.5t-41 -179.5q0 -65 6.5 -102.5t16.5 -37.5 q8 0 34.5 56.5t52.5 128.5q24 65 37 116.5t13 82.5z" />
<glyph unicode="&#xe3;" d="M219 606q-8 0 -16.5 -9.5t-21.5 -33.5l-14 9l60 109q8 -1 18 -2t29 -4q36 -4 53.5 -5.5t32.5 -1.5q8 0 17 7t25 27l14 -6l-56 -103q-9 1 -19.5 2t-31.5 4q-37 4 -55.5 5.5t-34.5 1.5zM323 373q-22 -89 -64 -185t-99 -188l-74 -11q-24 17 -40.5 66.5t-16.5 107.5 q0 147 86.5 235.5t236.5 91.5h114l-38 -54v-350l74 -86h-191v257zM313 461q-78 -1 -119 -64.5t-41 -179.5q0 -65 6.5 -102.5t16.5 -37.5q8 0 34.5 56.5t52.5 128.5q24 65 37 116.5t13 82.5z" />
<glyph unicode="&#xe4;" d="M127 622l62 76l61 -76l-61 -77zM312 622l62 76l61 -76l-61 -77zM323 373q-22 -89 -64 -185t-99 -188l-74 -11q-24 17 -40.5 66.5t-16.5 107.5q0 147 86.5 235.5t236.5 91.5h114l-38 -54v-350l74 -86h-191v257zM313 461q-78 -1 -119 -64.5t-41 -179.5q0 -65 6.5 -102.5 t16.5 -37.5q8 0 34.5 56.5t52.5 128.5q24 65 37 116.5t13 82.5z" />
<glyph unicode="&#xe5;" d="M359 628q0 -34 -23 -58t-55 -24t-55 24t-23 58t23 58t55 24t55 -24t23 -58zM331 628q0 22 -14.5 37.5t-35.5 15.5t-35.5 -15.5t-14.5 -37.5t14.5 -37.5t35.5 -15.5t35.5 15.5t14.5 37.5zM323 373q-22 -89 -64 -185t-99 -188l-74 -11q-24 17 -40.5 66.5t-16.5 107.5 q0 147 86.5 235.5t236.5 91.5h114l-38 -54v-350l74 -86h-191v257zM313 461q-78 -1 -119 -64.5t-41 -179.5q0 -65 6.5 -102.5t16.5 -37.5q8 0 34.5 56.5t52.5 128.5q24 65 37 116.5t13 82.5z" />
<glyph unicode="&#xe6;" horiz-adv-x="642" d="M453 59q20 0 42 17t45 51q16 23 29.5 48t24.5 52l16 -10q-26 -86 -88 -157.5t-123 -71.5q-70 0 -109 52.5t-39 147.5v2q-20 -47 -45.5 -95t-54.5 -95l-74 -11q-24 17 -40.5 66.5t-16.5 107.5q0 157 106 242t313 94q31 7 58 2.5t49 -20.5q24 -17 39.5 -46t15.5 -47 l-220 -189q7 -64 26.5 -102t45.5 -38zM426 472q-25 -15 -37 -66t-12 -138q0 -9 0.5 -19t1.5 -26l115 109q-1 22 -5 43t-11 39q-12 29 -28 46.5t-24 11.5zM304 461q-78 -1 -119 -64.5t-41 -179.5q0 -65 6.5 -102.5t16.5 -37.5q8 0 34.5 56.5t52.5 128.5q24 65 37 116.5 t13 82.5z" />
<glyph unicode="&#xe7;" horiz-adv-x="381" d="M155 269q0 -100 18 -155t51 -55q26 0 63 46.5t70 122.5l16 -10q-32 -92 -83 -154.5t-100 -73.5l-17 -35q48 -11 71.5 -26.5t23.5 -35.5q0 -27 -29.5 -48.5t-66.5 -21.5q-21 0 -39 7t-36 22l9 13q16 -12 33.5 -18t36.5 -6q21 0 34 7t13 19q0 14 -12.5 22t-93.5 28l46 72 q-63 5 -98.5 55.5t-35.5 138.5q0 108 73 202t171 119h10l70 -140l-3 -4l-159 67q-13 0 -24.5 -52t-11.5 -106z" />
<glyph unicode="&#xe8;" horiz-adv-x="417" d="M220 572l-123 129h120l18 -129h-15zM231 59q20 0 42 17t45 51q16 23 29.5 48t24.5 52l16 -10q-26 -86 -88 -157.5t-123 -71.5q-70 0 -109 52.5t-39 147.5q0 50 15.5 102.5t43.5 97.5q34 55 77.5 85t88.5 30q25 0 46 -8.5t38 -25.5q18 -17 29.5 -41.5t11.5 -39.5 l-220 -189q7 -64 26.5 -102t45.5 -38zM204 472q-25 -15 -37 -66t-12 -138q0 -9 0.5 -19t1.5 -26l115 109q-1 22 -5 43t-11 39q-12 29 -28 46.5t-24 11.5z" />
<glyph unicode="&#xe9;" horiz-adv-x="417" d="M214 572h-15l18 129h120zM231 59q20 0 42 17t45 51q16 23 29.5 48t24.5 52l16 -10q-26 -86 -88 -157.5t-123 -71.5q-70 0 -109 52.5t-39 147.5q0 50 15.5 102.5t43.5 97.5q34 55 77.5 85t88.5 30q25 0 46 -8.5t38 -25.5q18 -17 29.5 -41.5t11.5 -39.5l-220 -189 q7 -64 26.5 -102t45.5 -38zM204 472q-25 -15 -37 -66t-12 -138q0 -9 0.5 -19t1.5 -26l115 109q-1 22 -5 43t-11 39q-12 29 -28 46.5t-24 11.5z" />
<glyph unicode="&#xea;" horiz-adv-x="417" d="M124 572l49 129h82l49 -129l-15 3l-75 67l-75 -67zM231 59q20 0 42 17t45 51q16 23 29.5 48t24.5 52l16 -10q-26 -86 -88 -157.5t-123 -71.5q-70 0 -109 52.5t-39 147.5q0 50 15.5 102.5t43.5 97.5q34 55 77.5 85t88.5 30q25 0 46 -8.5t38 -25.5q18 -17 29.5 -41.5 t11.5 -39.5l-220 -189q7 -64 26.5 -102t45.5 -38zM204 472q-25 -15 -37 -66t-12 -138q0 -9 0.5 -19t1.5 -26l115 109q-1 22 -5 43t-11 39q-12 29 -28 46.5t-24 11.5z" />
<glyph unicode="&#xeb;" horiz-adv-x="417" d="M60 642l62 76l61 -76l-61 -77zM245 642l62 76l61 -76l-61 -77zM231 59q20 0 42 17t45 51q16 23 29.5 48t24.5 52l16 -10q-26 -86 -88 -157.5t-123 -71.5q-70 0 -109 52.5t-39 147.5q0 50 15.5 102.5t43.5 97.5q34 55 77.5 85t88.5 30q25 0 46 -8.5t38 -25.5 q18 -17 29.5 -41.5t11.5 -39.5l-220 -189q7 -64 26.5 -102t45.5 -38zM204 472q-25 -15 -37 -66t-12 -138q0 -9 0.5 -19t1.5 -26l115 109q-1 22 -5 43t-11 39q-12 29 -28 46.5t-24 11.5z" />
<glyph unicode="&#xec;" horiz-adv-x="323" d="M153 552l-123 129h120l18 -129h-15zM37 433l183 67v-414l74 -86h-189v356z" />
<glyph unicode="&#xed;" horiz-adv-x="323" d="M147 552h-15l18 129h120zM29 433l183 67v-414l74 -86h-189v356z" />
<glyph unicode="&#xee;" horiz-adv-x="323" d="M57 552l49 129h82l49 -129l-15 3l-75 67l-75 -67zM31 433l183 67v-414l74 -86h-189v356z" />
<glyph unicode="&#xef;" horiz-adv-x="323" d="M-7 622l62 76l61 -76l-61 -77zM178 622l62 76l61 -76l-61 -77zM30 433l183 67v-414l74 -86h-189v356z" />
<glyph unicode="&#xf0;" horiz-adv-x="491" d="M245 645l97 64l21 -28l-88 -58q93 -71 145 -159.5t52 -177.5q0 -119 -76.5 -209.5t-177.5 -90.5q-84 0 -136.5 58t-52.5 155q0 126 70 214.5t172 87.5h31q-16 26 -34 49t-38 43l-98 -64l-20 28l91 60q-27 23 -58 41.5t-69 34.5l47 18q30 -13 60.5 -29.5t61.5 -36.5z M155 266q0 -38 4.5 -73t13.5 -65q15 -48 37.5 -78.5t40.5 -30.5q51 0 78 56.5t27 163.5q0 53 -7 104t-21 98q-13 10 -41.5 19.5t-54.5 9.5q-37 0 -57 -52t-20 -152z" />
<glyph unicode="&#xf1;" horiz-adv-x="543" d="M213 606q-8 0 -16.5 -9.5t-21.5 -33.5l-14 9l60 109q8 -1 18 -2t29 -4q36 -4 53.5 -5.5t32.5 -1.5q8 0 17 7t25 27l14 -6l-56 -103q-9 1 -19.5 2t-31.5 4q-37 4 -55.5 5.5t-34.5 1.5zM78 356l-68 77l183 67v-332q23 88 66.5 186t71.5 136l98 25q19 -58 23.5 -107 t4.5 -206v-116l74 -86h-189v144q0 99 -5 163.5t-15 101.5l-8 1q-53 -104 -87 -201t-34 -148l15 -61h-130v356z" />
<glyph unicode="&#xf2;" horiz-adv-x="501" d="M252 552l-123 129h120l18 -129h-15zM472 285q0 -118 -76.5 -208.5t-177.5 -90.5q-84 0 -136.5 58t-52.5 155q0 125 70 214t172 89q93 0 147 -58.5t54 -158.5zM340 240q0 39 -5 73t-15 62q-16 43 -41 69t-47 26q-37 0 -57 -52t-20 -152q0 -38 4.5 -73t13.5 -65 q15 -48 37.5 -78.5t40.5 -30.5q20 0 40.5 25.5t33.5 69.5q7 26 11 58t4 68z" />
<glyph unicode="&#xf3;" horiz-adv-x="501" d="M246 552h-15l18 129h120zM472 285q0 -118 -76.5 -208.5t-177.5 -90.5q-84 0 -136.5 58t-52.5 155q0 125 70 214t172 89q93 0 147 -58.5t54 -158.5zM340 240q0 39 -5 73t-15 62q-16 43 -41 69t-47 26q-37 0 -57 -52t-20 -152q0 -38 4.5 -73t13.5 -65q15 -48 37.5 -78.5 t40.5 -30.5q20 0 40.5 25.5t33.5 69.5q7 26 11 58t4 68z" />
<glyph unicode="&#xf4;" horiz-adv-x="501" d="M156 552l49 129h82l49 -129l-15 3l-75 67l-75 -67zM271 502q93 0 147 -58.5t54 -158.5q0 -118 -76.5 -208.5t-177.5 -90.5q-84 0 -136.5 58t-52.5 155q0 125 70 214t172 89zM155 266q0 -38 4.5 -73t13.5 -65q15 -48 37.5 -78.5t40.5 -30.5q20 0 40.5 25.5t33.5 69.5 q7 26 11 58t4 68q0 39 -5 73t-15 62q-16 43 -41 69t-47 26q-37 0 -57 -52t-20 -152z" />
<glyph unicode="&#xf5;" horiz-adv-x="501" d="M184 606q-8 0 -16.5 -9.5t-21.5 -33.5l-14 9l60 109q8 -1 18 -2t29 -4q36 -4 53.5 -5.5t32.5 -1.5q8 0 17 7t25 27l14 -6l-56 -103q-9 1 -19.5 2t-31.5 4q-37 4 -55.5 5.5t-34.5 1.5zM271 502q93 0 147 -58.5t54 -158.5q0 -118 -76.5 -208.5t-177.5 -90.5 q-84 0 -136.5 58t-52.5 155q0 125 70 214t172 89zM155 266q0 -38 4.5 -73t13.5 -65q15 -48 37.5 -78.5t40.5 -30.5q20 0 40.5 25.5t33.5 69.5q7 26 11 58t4 68q0 39 -5 73t-15 62q-16 43 -41 69t-47 26q-37 0 -57 -52t-20 -152z" />
<glyph unicode="&#xf6;" horiz-adv-x="501" d="M92 622l62 76l61 -76l-61 -77zM277 622l62 76l61 -76l-61 -77zM271 502q93 0 147 -58.5t54 -158.5q0 -118 -76.5 -208.5t-177.5 -90.5q-84 0 -136.5 58t-52.5 155q0 125 70 214t172 89zM155 266q0 -38 4.5 -73t13.5 -65q15 -48 37.5 -78.5t40.5 -30.5q20 0 40.5 25.5 t33.5 69.5q7 26 11 58t4 68q0 39 -5 73t-15 62q-16 43 -41 69t-47 26q-37 0 -57 -52t-20 -152z" />
<glyph unicode="&#xf8;" horiz-adv-x="501" d="M399 461l35 46h39l-52 -67q25 -29 38 -68.5t13 -86.5q0 -118 -76.5 -208.5t-177.5 -90.5q-34 0 -64 10.5t-54 30.5l-32 -41h-39l49 62q-24 29 -36.5 67t-12.5 84q0 125 70 214t172 89q38 0 70.5 -10.5t57.5 -30.5zM232 470q-37 0 -57 -52t-20 -152q0 -27 2.5 -53.5 t7.5 -51.5l158 204q-15 47 -41.5 76t-49.5 29zM325 114q7 26 11 58t4 68q0 22 -2 43.5t-5 42.5l-158 -203q14 -46 36 -75t40 -29q20 0 40.5 25.5t33.5 69.5z" />
<glyph unicode="&#xf9;" horiz-adv-x="522" d="M259 570l-123 129h120l18 -129h-15zM441 77l68 -77h-183v322q-23 -88 -66.5 -186t-71.5 -136l-90 -8q-11 59 -15 97.5t-4 73.5v241l-74 86l189 20v-164q0 -106 1.5 -170.5t5.5 -102.5q53 103 89 203.5t36 152.5l-15 61h130v-413z" />
<glyph unicode="&#xfa;" horiz-adv-x="522" d="M253 570h-15l18 129h120zM441 77l68 -77h-183v322q-23 -88 -66.5 -186t-71.5 -136l-90 -8q-11 59 -15 97.5t-4 73.5v241l-74 86l189 20v-164q0 -106 1.5 -170.5t5.5 -102.5q53 103 89 203.5t36 152.5l-15 61h130v-413z" />
<glyph unicode="&#xfb;" horiz-adv-x="522" d="M163 570l49 129h82l49 -129l-15 3l-75 67l-75 -67zM441 77l68 -77h-183v322q-23 -88 -66.5 -186t-71.5 -136l-90 -8q-11 59 -15 97.5t-4 73.5v241l-74 86l189 20v-164q0 -106 1.5 -170.5t5.5 -102.5q53 103 89 203.5t36 152.5l-15 61h130v-413z" />
<glyph unicode="&#xfc;" horiz-adv-x="522" d="M99 640l62 76l61 -76l-61 -77zM284 640l62 76l61 -76l-61 -77zM441 77l68 -77h-183v322q-23 -88 -66.5 -186t-71.5 -136l-90 -8q-11 59 -15 97.5t-4 73.5v241l-74 86l189 20v-164q0 -106 1.5 -170.5t5.5 -102.5q53 103 89 203.5t36 152.5l-15 61h130v-413z" />
<glyph unicode="&#xfd;" horiz-adv-x="516" d="M258 552h-15l18 129h120zM35 -90q40 -33 99.5 -58t93.5 -25q58 0 84 47.5t27 150.5v226q-41 -108 -96.5 -177t-118.5 -89l-37 426l-82 79h185l32 -405q55 52 86.5 148t31.5 187v70h113v-415q0 -55 -25.5 -109.5t-71.5 -99.5q-47 -46 -103.5 -72.5t-106.5 -26.5h-6 l-111 136z" />
<glyph unicode="&#xfe;" horiz-adv-x="502" d="M189 174q21 83 50.5 163.5t65.5 152.5l99 18q29 -45 47.5 -109.5t18.5 -127.5q0 -114 -78.5 -204t-202.5 -106v-120l74 -56h-213l24 66v725l-68 77l183 57v-536zM298 399q-8 0 -29.5 -50t-42.5 -119q-17 -57 -27 -104.5t-10 -75.5v-63q76 1 116.5 62.5t40.5 167.5 q0 70 -16 126t-32 56z" />
<glyph unicode="&#xff;" horiz-adv-x="516" d="M104 622l62 76l61 -76l-61 -77zM289 622l62 76l61 -76l-61 -77zM35 -90q40 -33 99.5 -58t93.5 -25q58 0 84 47.5t27 150.5v226q-41 -108 -96.5 -177t-118.5 -89l-37 426l-82 79h185l32 -405q55 52 86.5 148t31.5 187v70h113v-415q0 -55 -25.5 -109.5t-71.5 -99.5 q-47 -46 -103.5 -72.5t-106.5 -26.5h-6l-111 136z" />
<glyph unicode="&#x106;" horiz-adv-x="651" d="M340 740h-14l12 129h125zM405 685h149v-203h-6q-35 78 -87 120t-115 42q-76 0 -117.5 -63.5t-41.5 -174.5q0 -138 52.5 -219.5t145.5 -81.5q66 0 116.5 28.5t86.5 87.5l14 -10q-43 -105 -114 -164t-161 -59q-126 0 -202 91t-76 240q0 72 26 140t74 119q49 52 114.5 79.5 t141.5 27.5z" />
<glyph unicode="&#x107;" horiz-adv-x="381" d="M225 552h-15l18 129h120zM283 504l70 -140l-3 -4l-159 67q-13 0 -24.5 -52t-11.5 -106q0 -100 18 -155t51 -55q26 0 63 46.5t70 122.5l16 -10q-34 -100 -91.5 -165t-105.5 -65q-68 0 -107.5 51.5t-39.5 143.5q0 108 73 202t171 119h10z" />
<glyph unicode="&#x108;" horiz-adv-x="651" d="M267 740l59 129h79l60 -129h-14l-85 70l-85 -70h-14zM405 685h149v-203h-6q-35 78 -87 120t-115 42q-76 0 -117.5 -63.5t-41.5 -174.5q0 -138 52.5 -219.5t145.5 -81.5q66 0 116.5 28.5t86.5 87.5l14 -10q-43 -105 -114 -164t-161 -59q-126 0 -202 91t-76 240 q0 72 26 140t74 119q49 52 114.5 79.5t141.5 27.5z" />
<glyph unicode="&#x109;" horiz-adv-x="381" d="M135 552l49 129h82l49 -129l-15 3l-75 67l-75 -67zM283 504l70 -140l-3 -4l-159 67q-13 0 -24.5 -52t-11.5 -106q0 -100 18 -155t51 -55q26 0 63 46.5t70 122.5l16 -10q-34 -100 -91.5 -165t-105.5 -65q-68 0 -107.5 51.5t-39.5 143.5q0 108 73 202t171 119h10z" />
<glyph unicode="&#x10b;" horiz-adv-x="381" d="M149 621l76 78l75 -78l-75 -79zM283 504l70 -140l-3 -4l-159 67q-13 0 -24.5 -52t-11.5 -106q0 -100 18 -155t51 -55q26 0 63 46.5t70 122.5l16 -10q-34 -100 -91.5 -165t-105.5 -65q-68 0 -107.5 51.5t-39.5 143.5q0 108 73 202t171 119h10z" />
<glyph unicode="&#x10c;" horiz-adv-x="651" d="M359 799l85 70h14l-60 -129h-79l-59 129h15zM405 685h149v-203h-6q-35 78 -87 120t-115 42q-76 0 -117.5 -63.5t-41.5 -174.5q0 -138 52.5 -219.5t145.5 -81.5q66 0 116.5 28.5t86.5 87.5l14 -10q-43 -105 -114 -164t-161 -59q-126 0 -202 91t-76 240q0 72 26 140t74 119 q49 52 114.5 79.5t141.5 27.5z" />
<glyph unicode="&#x10d;" horiz-adv-x="381" d="M225 611l75 67l15 3l-49 -129h-82l-49 129l15 -3zM283 504l70 -140l-3 -4l-159 67q-13 0 -24.5 -52t-11.5 -106q0 -100 18 -155t51 -55q26 0 63 46.5t70 122.5l16 -10q-34 -100 -91.5 -165t-105.5 -65q-68 0 -107.5 51.5t-39.5 143.5q0 108 73 202t171 119h10z" />
<glyph unicode="&#x10e;" horiz-adv-x="735" d="M349 799l85 70h14l-60 -129h-79l-59 129h14zM126 106v473l-70 106h253q178 0 276.5 -85.5t98.5 -227.5q0 -171 -106.5 -271.5t-284.5 -100.5h-237zM317 653h-67v-615h60q118 0 180.5 82t62.5 224q0 149 -61.5 229t-174.5 80z" />
<glyph unicode="&#x10f;" horiz-adv-x="691" d="M577 711q31 -20 54 -48t23 -49q0 -45 -33 -90.5t-107 -94.5l-13 10q30 26 46 53t16 51q0 10 -3 18t-25 34l-37 31zM434 710v-640l74 -70l-191 -9v266l12 116q-22 -89 -64 -185t-99 -188l-74 -11q-25 18 -44 68.5t-19 105.5q0 134 78 222.5t212 102.5v88l-68 77zM319 461 q-80 -1 -123 -67t-43 -177q0 -62 8.5 -101t20.5 -39q8 0 34.5 56.5t52.5 128.5q24 65 37 116.5t13 82.5z" />
<glyph unicode="&#x116;" horiz-adv-x="592" d="M234 820l68 80l66 -80l-66 -81zM511 475h-5l-117 174h-156v-277h260v-40h-260v-296h165l137 183l5 -2l-11 -217h-477l57 106v475l-57 104h459v-210z" />
<glyph unicode="&#x117;" horiz-adv-x="417" d="M138 641l76 78l75 -78l-75 -79zM231 59q20 0 42 17t45 51q16 23 29.5 48t24.5 52l16 -10q-26 -86 -88 -157.5t-123 -71.5q-70 0 -109 52.5t-39 147.5q0 50 15.5 102.5t43.5 97.5q34 55 77.5 85t88.5 30q25 0 46 -8.5t38 -25.5q18 -17 29.5 -41.5t11.5 -39.5l-220 -189 q7 -64 26.5 -102t45.5 -38zM204 472q-25 -15 -37 -66t-12 -138q0 -9 0.5 -19t1.5 -26l115 109q-1 22 -5 43t-11 39q-12 29 -28 46.5t-24 11.5z" />
<glyph unicode="&#x11a;" horiz-adv-x="592" d="M307 799l85 70h14l-60 -129h-79l-59 129h15zM511 475h-5l-117 174h-156v-277h260v-40h-260v-296h165l137 183l5 -2l-11 -217h-477l57 106v475l-57 104h459v-210z" />
<glyph unicode="&#x11b;" horiz-adv-x="417" d="M214 631l75 67l15 3l-49 -129h-82l-49 129l15 -3zM231 59q20 0 42 17t45 51q16 23 29.5 48t24.5 52l16 -10q-26 -86 -88 -157.5t-123 -71.5q-70 0 -109 52.5t-39 147.5q0 50 15.5 102.5t43.5 97.5q34 55 77.5 85t88.5 30q25 0 46 -8.5t38 -25.5q18 -17 29.5 -41.5 t11.5 -39.5l-220 -189q7 -64 26.5 -102t45.5 -38zM204 472q-25 -15 -37 -66t-12 -138q0 -9 0.5 -19t1.5 -26l115 109q-1 22 -5 43t-11 39q-12 29 -28 46.5t-24 11.5z" />
<glyph unicode="&#x131;" horiz-adv-x="323" d="M31 433l188 67v-414l74 -86h-268l74 86v270z" />
<glyph unicode="&#x132;" horiz-adv-x="691" d="M319 0h-264l70 106v473l-70 106h264l-70 -106v-473zM372 685h264l-70 -106v-575q0 -44 -37 -91.5t-101 -88.5l-7 4q9 19 15 47t6 52v652z" />
<glyph unicode="&#x133;" horiz-adv-x="557" d="M48 639l84 92l83 -92l-83 -93zM347 639l82 92l81 -92l-81 -93zM12 433l183 67v-414l74 -86h-189v356zM375 356l-65 77l179 67v-494q0 -57 -33.5 -116.5t-96.5 -114.5l-6 3q11 14 16.5 56t5.5 103v419z" />
<glyph unicode="&#x139;" horiz-adv-x="610" d="M170 740h-14l12 129h125zM53 0l57 106v475l-57 104h253l-72 -105v-544h191l138 181h4l-10 -217h-504z" />
<glyph unicode="&#x13d;" horiz-adv-x="614" d="M471 711q31 -20 54 -48t23 -49q0 -45 -33 -90.5t-107 -94.5l-13 10q30 26 46 53t16 51q0 10 -3 18t-25 34l-37 31zM53 0l57 106v475l-57 104h253l-72 -105v-544h191l138 181h4l-10 -217h-504z" />
<glyph unicode="&#x13f;" horiz-adv-x="614" d="M53 0l57 106v475l-57 104h253l-72 -105v-544h191l138 181h4l-10 -217h-504zM368 379l82 93l81 -93l-81 -92z" />
<glyph unicode="&#x140;" horiz-adv-x="441" d="M12 517l68 29v30l-68 77l183 57v-624l74 -86h-189v440zM266 263l82 93l81 -93l-81 -92z" />
<glyph unicode="&#x141;" horiz-adv-x="624" d="M565 0h-504l57 106v183l-94 -29v62l94 29v230l-57 104h253l-72 -105v-191l125 39v-64l-125 -38v-290h191l138 181h4z" />
<glyph unicode="&#x143;" horiz-adv-x="756" d="M361 740h-14l12 129h125zM174 487v-401l82 -86h-204l70 93v465l-92 127h157l395 -555v469l-82 86h204l-70 -93v-534l41 -58h-148z" />
<glyph unicode="&#x147;" horiz-adv-x="756" d="M379 799l85 70h14l-60 -129h-79l-59 129h15zM174 487v-401l82 -86h-204l70 93v465l-92 127h157l395 -555v469l-82 86h204l-70 -93v-534l41 -58h-148z" />
<glyph unicode="&#x152;" horiz-adv-x="994" d="M885 372v-40h-260v-296h165l137 183l5 -2l-10 -217h-583q-123 0 -202.5 90.5t-79.5 222.5q0 165 96.5 268.5t257.5 103.5h493v-210h-6l-116 174h-157v-277h260zM406 36h95v612h-117q-91 0 -141.5 -72.5t-50.5 -179.5q0 -157 59 -258.5t155 -101.5z" />
<glyph unicode="&#x153;" horiz-adv-x="735" d="M546 59q20 0 42 17t45 51q16 23 29.5 48t24.5 52l16 -10q-26 -86 -88 -157.5t-123 -71.5q-39 0 -69 17t-49 49q-35 -33 -75 -50.5t-81 -17.5q-84 0 -136.5 58t-52.5 155q0 125 70 214t172 89q52 0 93 -19.5t68 -56.5q25 29 52 48.5t48 24.5q31 7 58 2.5t49 -20.5 q24 -17 39.5 -46t15.5 -47l-220 -189q7 -64 26.5 -102t45.5 -38zM472 285q0 -6 -0.5 -12.5t-1.5 -20.5l2 -29l115 109q-1 22 -5 43t-11 39q-12 29 -28 46.5t-24 11.5q-22 -14 -33.5 -54t-14.5 -106q1 -5 1 -10.5v-16.5zM155 266q0 -38 4.5 -73t13.5 -65q15 -48 37.5 -78.5 t40.5 -30.5q20 0 40.5 25.5t33.5 69.5q7 26 11 58t4 68q0 39 -5 73t-15 62q-16 43 -41 69t-47 26q-37 0 -57 -52t-20 -152z" />
<glyph unicode="&#x154;" horiz-adv-x="696" d="M304 740h-14l12 129h125zM422 339l148 -241l101 -98h-193q-111 197 -136.5 239.5t-46.5 72.5l-45 -4v-202l70 -106h-265l71 106v473l-71 106h229q133 0 209.5 -45.5t76.5 -131.5q0 -53 -39.5 -97.5t-108.5 -71.5zM250 341q78 2 129 44t51 111q0 79 -45 119t-135 40v-314z " />
<glyph unicode="&#x155;" horiz-adv-x="409" d="M205 552h-15l18 129h120zM337 504l84 -165l-3 -4l-132 36q-7 -3 -27 -49.5t-38 -100.5q-17 -50 -25.5 -91t-8.5 -69l8 -61h-123v356l-68 77l183 67v-318q24 94 60.5 179.5t76.5 142.5h13z" />
<glyph unicode="&#x158;" horiz-adv-x="696" d="M313 799l84 70h15l-60 -129h-79l-60 129h15zM422 339l148 -241l101 -98h-193q-111 197 -136.5 239.5t-46.5 72.5l-45 -4v-202l70 -106h-265l71 106v473l-71 106h229q133 0 209.5 -45.5t76.5 -131.5q0 -53 -39.5 -97.5t-108.5 -71.5zM250 341q78 2 129 44t51 111 q0 79 -45 119t-135 40v-314z" />
<glyph unicode="&#x159;" horiz-adv-x="409" d="M205 611l75 67l15 3l-49 -129h-82l-49 129l15 -3zM337 504l84 -165l-3 -4l-132 36q-7 -3 -27 -49.5t-38 -100.5q-17 -50 -25.5 -91t-8.5 -69l8 -61h-123v356l-68 77l183 67v-318q24 94 60.5 179.5t76.5 142.5h13z" />
<glyph unicode="&#x15a;" horiz-adv-x="524" d="M253 740h-14l12 129h125zM235 -8q-49 0 -102.5 10t-86.5 26l-12 240h11q25 -103 87 -170.5t134 -67.5q46 0 76.5 24.5t30.5 65.5q0 45 -28 78t-122 77q-58 27 -84.5 43.5t-45.5 34.5q-28 28 -42 62t-14 77q0 87 55.5 140t151.5 53h136l46 15v-216l-8 1q-26 78 -78.5 123 t-118.5 45q-41 0 -66 -24.5t-25 -66.5q0 -40 29 -70t125 -72q58 -26 85 -41t47 -32q31 -26 46.5 -59t15.5 -73q0 -109 -62.5 -166t-180.5 -57z" />
<glyph unicode="&#x15b;" horiz-adv-x="343" d="M185 552h-15l18 129h120zM214 490h71l5 -148l-6 -1q-30 47 -65.5 74t-66.5 27q-19 0 -27 -8.5t-8 -29.5q0 -17 15.5 -37t69.5 -64q70 -57 92.5 -89.5t22.5 -63.5q0 -62 -51 -106t-134 -44h-82l-24 170l3 9q54 -79 91 -110t72 -31q23 0 34.5 10t11.5 30q0 25 -18 50.5 t-77 70.5q-63 49 -82.5 78t-19.5 58q0 62 49.5 108.5t123.5 46.5z" />
<glyph unicode="&#x160;" horiz-adv-x="541" d="M278 799l85 70h15l-60 -129h-80l-59 129h15zM247 -8q-49 0 -102.5 10t-86.5 26l-12 240h11q25 -103 87 -170.5t134 -67.5q46 0 76.5 24.5t30.5 65.5q0 45 -28 78t-122 77q-58 27 -84.5 43.5t-45.5 34.5q-28 28 -42 62t-14 77q0 87 55.5 140t151.5 53h136l46 15v-216l-8 1 q-26 78 -78.5 123t-118.5 45q-41 0 -66 -24.5t-25 -66.5q0 -40 29 -70t125 -72q58 -26 85 -41t47 -32q31 -26 46.5 -59t15.5 -73q0 -109 -62.5 -166t-180.5 -57z" />
<glyph unicode="&#x161;" horiz-adv-x="343" d="M185 611l75 67l15 3l-49 -129h-82l-49 129l15 -3zM214 490h71l5 -148l-6 -1q-30 47 -65.5 74t-66.5 27q-19 0 -27 -8.5t-8 -29.5q0 -17 15.5 -37t69.5 -64q70 -57 92.5 -89.5t22.5 -63.5q0 -62 -51 -106t-134 -44h-82l-24 170l3 9q54 -79 91 -110t72 -31q23 0 34.5 10 t11.5 30q0 25 -18 50.5t-77 70.5q-63 49 -82.5 78t-19.5 58q0 62 49.5 108.5t123.5 46.5z" />
<glyph unicode="&#x164;" horiz-adv-x="660" d="M314 799l85 70h14l-60 -129h-79l-59 129h15zM34 466v219h577v-219l-6 -1l-127 185h-96v-544l71 -106h-265l70 106v543h-92l-128 -184z" />
<glyph unicode="&#x16e;" horiz-adv-x="763" d="M505 808q0 -40 -27.5 -69t-65.5 -29q-39 0 -66.5 28.5t-27.5 69.5t27.5 69.5t66.5 28.5q38 0 65.5 -29t27.5 -69zM473 808q0 26 -18 45t-43 19t-43 -19t-18 -45t18 -45t43 -19t43 19t18 45zM56 685h265l-70 -106v-343q0 -106 39.5 -154.5t141.5 -48.5q81 0 122 67.5 t41 200.5v294l-73 90h190l-71 -90v-318q0 -60 -8 -98t-31 -83q-27 -52 -81.5 -81.5t-124.5 -29.5q-135 0 -202.5 60t-67.5 176v359z" />
<glyph unicode="&#x16f;" horiz-adv-x="522" d="M331 646q0 -34 -23 -58t-55 -24t-55 24t-23 58t23 58t55 24t55 -24t23 -58zM303 646q0 22 -14.5 37.5t-35.5 15.5t-35.5 -15.5t-14.5 -37.5t14.5 -37.5t35.5 -15.5t35.5 15.5t14.5 37.5zM441 77l68 -77h-183v322q-23 -88 -66.5 -186t-71.5 -136l-90 -8q-11 59 -15 97.5 t-4 73.5v241l-74 86l189 20v-164q0 -106 1.5 -170.5t5.5 -102.5q53 103 89 203.5t36 152.5l-15 61h130v-413z" />
<glyph unicode="&#x174;" horiz-adv-x="1005" d="M413 740l59 129h79l60 -129h-14l-85 70l-85 -70h-14zM720 141l143 457l-82 87h199l-64 -86l-204 -611h-58l-138 389l-136 -389h-58l-236 638l-49 59h260l-77 -61l157 -439l9 -37l109 288l-69 192l-47 57h260l-78 -61l148 -439z" />
<glyph unicode="&#x175;" horiz-adv-x="707" d="M318 552l49 129h82l49 -129l-15 3l-75 67l-75 -67zM624 435l-60 49v6h143q-5 -65 -26 -142.5t-53 -145.5q-40 -88 -90.5 -144t-106.5 -73l-49 278q-42 -112 -100 -185t-123 -93l-66 373l-93 69l180 95l75 -440l-1 -4q49 46 80 122.5t32 150.5q-2 10 -4.5 21.5t-8.5 40.5 q-6 26 -9.5 43t-7.5 34h120l71 -408l-1 -4q31 27 55 70.5t39 97.5q18 63 19 119.5t-15 69.5z" />
<glyph unicode="&#x176;" horiz-adv-x="689" d="M275 740l60 129h79l60 -129h-15l-84 70l-85 -70h-15zM406 101l80 -101h-284l80 101v180l-169 298l-87 106h306l-81 -106h-1l112 -189l15 -33l125 224l-81 104h242l-98 -94l-159 -273v-217z" />
<glyph unicode="&#x177;" horiz-adv-x="516" d="M168 552l49 129h82l49 -129l-15 3l-75 67l-75 -67zM35 -90q40 -33 99.5 -58t93.5 -25q58 0 84 47.5t27 150.5v226q-41 -108 -96.5 -177t-118.5 -89l-37 426l-82 79h185l32 -405q55 52 86.5 148t31.5 187v70h113v-415q0 -55 -25.5 -109.5t-71.5 -99.5 q-47 -46 -103.5 -72.5t-106.5 -26.5h-6l-111 136z" />
<glyph unicode="&#x178;" horiz-adv-x="689" d="M181 830l74 87l73 -87l-73 -88zM403 830l74 87l73 -87l-73 -88zM406 101l80 -101h-284l80 101v180l-169 298l-87 106h306l-81 -106h-1l112 -189l15 -33l125 224l-81 104h242l-98 -94l-159 -273v-217z" />
<glyph unicode="&#x179;" horiz-adv-x="668" d="M303 740h-14l17 129h120zM198 36h269l138 181h4l-11 -217h-547l-7 12l405 637h-226l-133 -183h-4l6 229l101 -10h408l7 -14z" />
<glyph unicode="&#x17a;" horiz-adv-x="425" d="M226 552h-15l18 129h120zM52 498l47 -8h313l-232 -328q28 20 59 30.5t61 10.5q55 0 85 -31t30 -87q0 -54 -22 -110t-62 -101q-41 -48 -93 -73.5t-108 -25.5q-36 0 -67 11.5t-59 34.5l12 18q38 -28 62.5 -36t53.5 -8q79 0 132 46.5t53 123.5q0 58 -26 92.5t-71 34.5 q-43 0 -76 -11t-48 -31l-48 -62h-25l280 391h-203l-61 -103l-6 -1z" />
<glyph unicode="&#x17b;" horiz-adv-x="668" d="M264 820l68 80l66 -80l-66 -81zM198 36h269l138 181h4l-11 -217h-547l-7 12l405 637h-226l-133 -183h-4l6 229l101 -10h408l7 -14z" />
<glyph unicode="&#x17c;" horiz-adv-x="425" d="M150 621l76 78l75 -78l-75 -79zM52 498l47 -8h313l-232 -328q28 20 59 30.5t61 10.5q55 0 85 -31t30 -87q0 -54 -22 -110t-62 -101q-41 -48 -93 -73.5t-108 -25.5q-36 0 -67 11.5t-59 34.5l12 18q38 -28 62.5 -36t53.5 -8q79 0 132 46.5t53 123.5q0 58 -26 92.5t-71 34.5 q-43 0 -76 -11t-48 -31l-48 -62h-25l280 391h-203l-61 -103l-6 -1z" />
<glyph unicode="&#x17d;" horiz-adv-x="668" d="M341 799l85 70h14l-60 -129h-79l-59 129h15zM198 36h269l138 181h4l-11 -217h-547l-7 12l405 637h-226l-133 -183h-4l6 229l101 -10h408l7 -14z" />
<glyph unicode="&#x17e;" horiz-adv-x="425" d="M226 611l75 67l15 3l-49 -129h-82l-49 129l15 -3zM52 498l47 -8h313l-232 -328q28 20 59 30.5t61 10.5q55 0 85 -31t30 -87q0 -54 -22 -110t-62 -101q-41 -48 -93 -73.5t-108 -25.5q-36 0 -67 11.5t-59 34.5l12 18q38 -28 62.5 -36t53.5 -8q79 0 132 46.5t53 123.5 q0 58 -26 92.5t-71 34.5q-43 0 -76 -11t-48 -31l-48 -62h-25l280 391h-203l-61 -103l-6 -1z" />
<glyph unicode="&#x2c6;" horiz-adv-x="213" d="M16 552l49 129h82l49 -129l-15 3l-75 67l-75 -67z" />
<glyph unicode="&#x2c7;" horiz-adv-x="212" d="M106 611l75 67l15 3l-49 -129h-82l-49 129l15 -3z" />
<glyph unicode="&#x2d9;" horiz-adv-x="247" d="M48 621l76 78l75 -78l-75 -79z" />
<glyph unicode="&#x2da;" horiz-adv-x="190" d="M172 628q0 -34 -23 -58t-55 -24t-55 24t-23 58t23 58t55 24t55 -24t23 -58zM144 628q0 22 -14.5 37.5t-35.5 15.5t-35.5 -15.5t-14.5 -37.5t14.5 -37.5t35.5 -15.5t35.5 15.5t14.5 37.5z" />
<glyph unicode="&#x2dc;" horiz-adv-x="361" d="M127 606q-8 0 -16.5 -9.5t-21.5 -33.5l-14 9l60 109q8 -1 18 -2t29 -4q36 -4 53.5 -5.5t32.5 -1.5q8 0 17 7t25 27l14 -6l-56 -103q-9 1 -19.5 2t-31.5 4q-37 4 -55.5 5.5t-34.5 1.5z" />
<glyph unicode="&#x1e80;" horiz-adv-x="1005" d="M512 740l-123 129h125l12 -129h-14zM720 141l143 457l-82 87h199l-64 -86l-204 -611h-58l-138 389l-136 -389h-58l-236 638l-49 59h260l-77 -61l157 -439l9 -37l109 288l-69 192l-47 57h260l-78 -61l148 -439z" />
<glyph unicode="&#x1e81;" horiz-adv-x="707" d="M414 552l-123 129h120l18 -129h-15zM624 435l-60 49v6h143q-5 -65 -26 -142.5t-53 -145.5q-40 -88 -90.5 -144t-106.5 -73l-49 278q-42 -112 -100 -185t-123 -93l-66 373l-93 69l180 95l75 -440l-1 -4q49 46 80 122.5t32 150.5q-2 10 -4.5 21.5t-8.5 40.5q-6 26 -9.5 43 t-7.5 34h120l71 -408l-1 -4q31 27 55 70.5t39 97.5q18 63 19 119.5t-15 69.5z" />
<glyph unicode="&#x1e82;" horiz-adv-x="1005" d="M509 740h-14l12 129h125zM720 141l143 457l-82 87h199l-64 -86l-204 -611h-58l-138 389l-136 -389h-58l-236 638l-49 59h260l-77 -61l157 -439l9 -37l109 288l-69 192l-47 57h260l-78 -61l148 -439z" />
<glyph unicode="&#x1e83;" horiz-adv-x="707" d="M408 552h-15l18 129h120zM624 435l-60 49v6h143q-5 -65 -26 -142.5t-53 -145.5q-40 -88 -90.5 -144t-106.5 -73l-49 278q-42 -112 -100 -185t-123 -93l-66 373l-93 69l180 95l75 -440l-1 -4q49 46 80 122.5t32 150.5q-2 10 -4.5 21.5t-8.5 40.5q-6 26 -9.5 43t-7.5 34 h120l71 -408l-1 -4q31 27 55 70.5t39 97.5q18 63 19 119.5t-15 69.5z" />
<glyph unicode="&#x1e84;" horiz-adv-x="1005" d="M322 829l75 87l72 -87l-72 -88zM545 829l74 87l73 -87l-73 -88zM720 141l143 457l-82 87h199l-64 -86l-204 -611h-58l-138 389l-136 -389h-58l-236 638l-49 59h260l-77 -61l157 -439l9 -37l109 288l-69 192l-47 57h260l-78 -61l148 -439z" />
<glyph unicode="&#x1e85;" horiz-adv-x="707" d="M254 622l62 76l61 -76l-61 -77zM439 622l62 76l61 -76l-61 -77zM624 435l-60 49v6h143q-5 -65 -26 -142.5t-53 -145.5q-40 -88 -90.5 -144t-106.5 -73l-49 278q-42 -112 -100 -185t-123 -93l-66 373l-93 69l180 95l75 -440l-1 -4q49 46 80 122.5t32 150.5 q-2 10 -4.5 21.5t-8.5 40.5q-6 26 -9.5 43t-7.5 34h120l71 -408l-1 -4q31 27 55 70.5t39 97.5q18 63 19 119.5t-15 69.5z" />
<glyph unicode="&#x1ef2;" horiz-adv-x="689" d="M374 740l-123 129h124l13 -129h-14zM406 101l80 -101h-284l80 101v180l-169 298l-87 106h306l-81 -106h-1l112 -189l15 -33l125 224l-81 104h242l-98 -94l-159 -273v-217z" />
<glyph unicode="&#x1ef3;" horiz-adv-x="516" d="M264 552l-123 129h120l18 -129h-15zM35 -90q40 -33 99.5 -58t93.5 -25q58 0 84 47.5t27 150.5v226q-41 -108 -96.5 -177t-118.5 -89l-37 426l-82 79h185l32 -405q55 52 86.5 148t31.5 187v70h113v-415q0 -55 -25.5 -109.5t-71.5 -99.5q-47 -46 -103.5 -72.5t-106.5 -26.5 h-6l-111 136z" />
<glyph unicode="&#x2000;" horiz-adv-x="463" />
<glyph unicode="&#x2001;" horiz-adv-x="927" />
<glyph unicode="&#x2002;" horiz-adv-x="463" />
<glyph unicode="&#x2003;" horiz-adv-x="927" />
<glyph unicode="&#x2004;" horiz-adv-x="309" />
<glyph unicode="&#x2005;" horiz-adv-x="231" />
<glyph unicode="&#x2006;" horiz-adv-x="154" />
<glyph unicode="&#x2007;" horiz-adv-x="154" />
<glyph unicode="&#x2008;" horiz-adv-x="115" />
<glyph unicode="&#x2009;" horiz-adv-x="180" />
<glyph unicode="&#x200a;" horiz-adv-x="51" />
<glyph unicode="&#x2010;" horiz-adv-x="294" d="M264 244h-223v76h223v-76z" />
<glyph unicode="&#x2011;" horiz-adv-x="294" d="M264 244h-223v76h223v-76z" />
<glyph unicode="&#x2012;" horiz-adv-x="294" d="M264 244h-223v76h223v-76z" />
<glyph unicode="&#x2013;" horiz-adv-x="500" d="M477 243h-454v66h454v-66z" />
<glyph unicode="&#x2014;" horiz-adv-x="900" d="M858 243h-816v66h816v-66z" />
<glyph unicode="&#x2018;" horiz-adv-x="248" d="M111 429q-31 20 -54 48t-23 49q0 45 33 90.5t107 94.5l13 -10q-30 -26 -46 -53t-16 -51q0 -10 3 -18t25 -34l37 -31z" />
<glyph unicode="&#x2019;" horiz-adv-x="248" d="M113 711q31 -20 54 -48t23 -49q0 -45 -33 -90.5t-107 -94.5l-13 10q30 26 46 53t16 51q0 10 -3 18t-25 34l-37 31z" />
<glyph unicode="&#x201a;" horiz-adv-x="227" d="M113 159q31 -20 54 -48t23 -49q0 -45 -33 -90.5t-107 -94.5l-13 10q30 26 46 53t16 51q0 10 -3 18t-25 34l-37 31z" />
<glyph unicode="&#x201c;" horiz-adv-x="425" d="M116 429q-31 19 -54 47t-23 50q0 45 33 90.5t107 94.5l13 -10q-30 -26 -46 -53t-16 -51q0 -11 4 -20.5t24 -31.5l37 -31zM306 429q-31 20 -54 48t-23 49q0 45 33 90.5t107 94.5l13 -10q-29 -25 -45 -52t-16 -52q0 -10 3.5 -19t23.5 -33l37 -31z" />
<glyph unicode="&#x201d;" horiz-adv-x="425" d="M118 711q31 -20 54 -48t23 -49q0 -45 -33 -90.5t-107 -94.5l-13 10q29 25 45 52t16 52q0 10 -3.5 19t-23.5 33l-37 31zM308 711q31 -19 54 -47t23 -50q0 -45 -33 -90.5t-107 -94.5l-13 10q30 26 46 53t16 51q0 11 -4 20.5t-24 31.5l-37 31z" />
<glyph unicode="&#x201e;" horiz-adv-x="427" d="M118 160q31 -20 54 -48t23 -49q0 -45 -33 -90.5t-107 -94.5l-13 10q29 25 45 52t16 52q0 10 -3.5 19t-23.5 33l-37 31zM308 160q31 -19 54 -47t23 -50q0 -45 -33 -90.5t-107 -94.5l-13 10q30 26 46 53t16 51q0 11 -4 20.5t-24 31.5l-37 31z" />
<glyph unicode="&#x2020;" horiz-adv-x="370" d="M0 376v114h152l-27 210h120l-27 -210h66l86 74v-114h-125v-88l-53 -442h-14l-53 442v88h-39z" />
<glyph unicode="&#x2021;" horiz-adv-x="370" d="M284 180l86 74v-114h-152l27 -210h-120l27 210h-66l-86 -74v114h152v270h-66l-86 -74v114h152l-27 210h120l-27 -210h66l86 74v-114h-152v-270h66z" />
<glyph unicode="&#x2022;" horiz-adv-x="347" d="M51 263l123 139l122 -139l-122 -138z" />
<glyph unicode="&#x2026;" horiz-adv-x="743" d="M32 66l82 92l81 -92l-81 -92zM290 66l82 92l81 -92l-81 -92zM548 66l82 92l81 -92l-81 -92z" />
<glyph unicode="&#x202f;" horiz-adv-x="185" />
<glyph unicode="&#x2039;" horiz-adv-x="296" d="M86 246h85l107 -218l-10 -10l-235 228l235 228l10 -17z" />
<glyph unicode="&#x203a;" horiz-adv-x="296" d="M214 246h-85l-107 218l10 10l235 -228l-235 -228l-10 17z" />
<glyph unicode="&#x2044;" horiz-adv-x="470" d="M473 719l-430 -752h-43l429 752h44z" />
<glyph unicode="&#x205f;" horiz-adv-x="231" />
<glyph unicode="&#x2070;" horiz-adv-x="409" d="M48 569q0 88 48.5 151.5t125.5 63.5q62 0 100.5 -52t38.5 -129q0 -88 -49 -151.5t-126 -63.5q-61 0 -99.5 52t-38.5 129zM222 417q27 0 43 35t16 81q0 92 -26.5 157t-65.5 65q-29 0 -44 -29.5t-15 -86.5q0 -93 26.5 -157.5t65.5 -64.5z" />
<glyph unicode="&#x2074;" horiz-adv-x="387" d="M272 549h87v-29h-87v-52l64 -42h-203l59 42v53h-164l162 284h97l-190 -255h94v51l81 113v-165z" />
<glyph unicode="&#x2075;" horiz-adv-x="340" d="M286 728h-187l-14 -76l26 11q17 7 34 10.5t33 3.5q54 0 93 -33.5t39 -83.5q0 -64 -47.5 -99t-135.5 -35h-81q1 33 1.5 60.5t0.5 48.5h4q8 -17 19 -32t26 -28q16 -14 33 -21.5t34 -7.5q37 0 51 20.5t14 68.5q0 62 -19 89.5t-57 27.5q-18 0 -37.5 -7.5t-38.5 -22.5l-2 -11 h-23l27 181l2 12h190l39 32l-6 -32z" />
<glyph unicode="&#x2076;" horiz-adv-x="355" d="M164 421q-59 0 -96 35t-37 92q0 82 70.5 153t191.5 116l4 -16q-70 -27 -114 -69t-60 -98q24 13 41.5 18.5t31.5 5.5q52 0 85 -30.5t33 -81.5q0 -50 -43 -87.5t-107 -37.5zM235 532q0 43 -21.5 71.5t-50.5 28.5q-10 0 -20.5 -4t-24.5 -16q-3 -13 -4.5 -26.5t-1.5 -34.5 q0 -50 18 -79.5t48 -29.5q26 0 41.5 27t15.5 63z" />
<glyph unicode="&#x2077;" horiz-adv-x="362" d="M44 680h-2v122h278l-216 -388l-27 10l160 302h-161z" />
<glyph unicode="&#x2078;" horiz-adv-x="363" d="M123 618q-47 38 -57 57.5t-10 43.5q0 45 38.5 72.5t94.5 27.5q43 0 75.5 -21.5t32.5 -54.5q0 -25 -14.5 -45t-48.5 -40q55 -35 72 -60t17 -57q0 -54 -46.5 -87t-106.5 -33q-57 0 -93.5 26t-36.5 67q0 18 6.5 34t19.5 30q7 7 16 14t41 26zM116 741q0 -14 9.5 -25.5 t30.5 -22.5q12 -6 34 -15.5t29 -12.5q17 12 25 28.5t8 41.5q0 31 -19.5 48.5t-49.5 17.5q-29 0 -48 -16.5t-19 -43.5zM257 510q0 22 -9.5 38t-30.5 29q-15 9 -44.5 21t-30.5 12q-26 -16 -41.5 -40.5t-15.5 -52.5q0 -35 23 -56.5t63 -21.5t63 19t23 52z" />
<glyph unicode="&#x2079;" horiz-adv-x="355" d="M195 815q61 0 99 -35t38 -92q0 -82 -72.5 -153t-197.5 -116l-4 16q72 27 117 69t62 98q-26 -13 -43.5 -18.5t-31.5 -5.5q-54 0 -88 30.5t-34 81.5q0 50 44.5 87.5t110.5 37.5zM121 704q0 -43 22.5 -71.5t52.5 -28.5q11 0 21.5 4.5t24.5 15.5q3 13 4.5 26.5t1.5 34.5 q0 50 -18.5 79.5t-49.5 29.5q-27 0 -43 -27t-16 -63z" />
<glyph unicode="&#x215b;" horiz-adv-x="766" d="M632 719l-430 -752h-43l429 752h44zM78 544l-1 1l146 140v-346l64 -42h-203l59 42v228zM706 312q0 -25 -14.5 -45t-48.5 -40q55 -35 72 -60t17 -57q0 -54 -46.5 -87t-106.5 -33q-57 0 -93.5 26t-36.5 67q0 18 6.5 34t19.5 30q7 7 16 14t41 26q-47 38 -57 57.5t-10 43.5 q0 45 38.5 72.5t94.5 27.5q43 0 75.5 -21.5t32.5 -54.5zM661 304q0 31 -19.5 48.5t-49.5 17.5q-29 0 -48 -16.5t-19 -43.5q0 -14 9.5 -25.5t31.5 -22.5q11 -6 33 -15.5t29 -12.5q17 12 25 28.5t8 41.5zM494 86q0 -35 23 -56.5t63 -21.5t63 19t23 52q0 22 -9.5 38t-30.5 29 q-15 9 -44.5 21t-30.5 12q-26 -16 -41.5 -40.5t-15.5 -52.5z" />
<glyph unicode="&#x215c;" horiz-adv-x="788" d="M627 719l-430 -752h-43l429 752h44zM340 425q0 -31 -30 -56.5t-88 -44.5q-38 -12 -83.5 -20t-76.5 -8l-5 19q74 0 125 23.5t51 64.5q0 35 -26.5 56.5t-85.5 31.5q-3 0 -10 -1.5t-11 -2.5l-2 11l23 7q73 25 97.5 46.5t24.5 47.5q0 30 -22.5 48t-59.5 18q-28 0 -48.5 -18 t-43.5 -70h-3v108h104q79 0 121.5 -19.5t42.5 -57.5q0 -30 -35.5 -53.5t-114.5 -45.5q76 -6 116 -27.5t40 -56.5zM720 312q0 -25 -14.5 -45t-48.5 -40q55 -35 72 -60t17 -57q0 -54 -46.5 -87t-106.5 -33q-57 0 -93.5 26t-36.5 67q0 18 6.5 34t19.5 30q7 7 16 14t41 26 q-47 38 -57 57.5t-10 43.5q0 45 38.5 72.5t94.5 27.5q43 0 75.5 -21.5t32.5 -54.5zM675 304q0 31 -19.5 48.5t-49.5 17.5q-29 0 -48 -16.5t-19 -43.5q0 -14 9.5 -25.5t31.5 -22.5q11 -6 33 -15.5t29 -12.5q17 12 25 28.5t8 41.5zM508 86q0 -35 23 -56.5t63 -21.5t63 19 t23 52q0 22 -9.5 38t-30.5 29q-15 9 -44.5 21t-30.5 12q-26 -16 -41.5 -40.5t-15.5 -52.5z" />
<glyph unicode="&#x215d;" horiz-adv-x="767" d="M615 719l-430 -752h-43l429 752h44zM286 609h-187l-14 -76l26 11q17 7 34 10.5t33 3.5q54 0 93 -33.5t39 -83.5q0 -64 -47.5 -99t-135.5 -35h-81q1 33 1.5 60.5t0.5 48.5h4q8 -17 19 -32t26 -28q16 -14 33 -21.5t34 -7.5q37 0 51 20.5t14 68.5q0 62 -19 89.5t-57 27.5 q-18 0 -37.5 -7.5t-38.5 -22.5l-2 -11h-23l27 181l2 12h190l39 32l-6 -32zM593 388q43 0 75.5 -21.5t32.5 -54.5q0 -25 -14.5 -45t-48.5 -40q55 -35 72 -60t17 -57q0 -54 -46.5 -87t-106.5 -33q-57 0 -93.5 26t-36.5 67q0 18 6.5 34t19.5 30q7 7 16 14t41 26 q-47 38 -57 57.5t-10 43.5q0 45 38.5 72.5t94.5 27.5zM656 304q0 31 -19.5 48.5t-49.5 17.5q-29 0 -48 -16.5t-19 -43.5q0 -14 9.5 -25.5t30.5 -22.5q12 -6 34 -15.5t29 -12.5q17 12 25 28.5t8 41.5zM546 179q-26 -16 -41.5 -40.5t-15.5 -52.5q0 -35 23 -56.5t63 -21.5 t63 19t23 52q0 22 -9.5 38t-30.5 29q-15 9 -44.5 21t-30.5 12z" />
<glyph unicode="&#x215e;" horiz-adv-x="770" d="M584 719l-430 -752h-43l429 752h44zM100 563h-2v122h278l-216 -388l-27 10l160 302h-161zM692 312q0 -25 -14.5 -45t-48.5 -40q55 -35 72 -60t17 -57q0 -54 -46.5 -87t-106.5 -33q-57 0 -93.5 26t-36.5 67q0 18 6.5 34t19.5 30q7 7 16 14t41 26q-47 38 -57 57.5t-10 43.5 q0 45 38.5 72.5t94.5 27.5q43 0 75.5 -21.5t32.5 -54.5zM647 304q0 31 -19.5 48.5t-49.5 17.5q-29 0 -48 -16.5t-19 -43.5q0 -14 9.5 -25.5t31.5 -22.5q11 -6 33 -15.5t29 -12.5q17 12 25 28.5t8 41.5zM480 86q0 -35 23 -56.5t63 -21.5t63 19t23 52q0 22 -9.5 38t-30.5 29 q-15 9 -44.5 21t-30.5 12q-26 -16 -41.5 -40.5t-15.5 -52.5z" />
<glyph unicode="&#x25fc;" horiz-adv-x="490" d="M0 490h490v-490h-490v490z" />
<glyph unicode="&#x2665;" horiz-adv-x="1000" d="M779 277q-18 -23 -41.5 -47.5t-122.5 -115.5q-57 -52 -93.5 -91t-66.5 -77q-30 38 -66.5 77t-93.5 91q-99 91 -122.5 115.5t-41.5 47.5q-40 51 -59 103t-19 110q0 98 51.5 151.5t143.5 53.5q75 0 126.5 -40t80.5 -124q29 84 80.5 124t126.5 40q92 0 143.5 -53.5 t51.5 -151.5q0 -58 -19 -110t-59 -103z" />
<glyph unicode="&#xfb00;" horiz-adv-x="666" d="M669 490l-7 -24l-185 -30v-155q0 -77 -5 -135.5t-17 -105.5q-9 -41 -35.5 -110t-39.5 -120h-8l-10 417v217l-153 -8v-180q0 -77 -5 -135.5t-17 -105.5q-9 -41 -35.5 -110t-39.5 -120h-8l-10 417v225l-70 63h80q19 59 73.5 108t129.5 69l78 21l26 -99q30 38 72 65t92 41 l78 21l42 -157h-4q-20 30 -82.5 63.5t-89.5 33.5q-23 0 -41.5 -22.5t-18.5 -58.5q0 -19 4.5 -40t13.5 -45h192zM251 628q-23 0 -41.5 -22.5t-18.5 -58.5q0 -15 2.5 -29t6.5 -28h167q0 13 6.5 32.5t18.5 39.5q-32 24 -77 45t-64 21z" />
<glyph horiz-adv-x="597" d="M126 451q38 45 89 68t112 23q97 0 158 -73t61 -181q0 -57 -19.5 -112t-55.5 -97q-38 -45 -89 -68t-112 -23q-97 0 -158 73.5t-61 180.5q0 57 19.5 112t55.5 97zM327 28q46 0 74 49.5t28 113.5q0 130 -45.5 220.5t-112.5 90.5q-49 0 -75 -43t-26 -120q0 -130 45 -220.5 t112 -90.5z" />
<glyph horiz-adv-x="382" d="M43 318l-1 2l208 221v-475l90 -66h-289l85 66v260z" />
<glyph horiz-adv-x="523" d="M482 119l-11 -119h-417l-8 33q3 3 47 37.5t72 61.5q33 30 58 59.5t42 59.5q21 36 31.5 73t10.5 75q0 50 -28.5 80t-76.5 30q-45 0 -77.5 -33.5t-61.5 -112.5h-5v173h130q110 0 179 -42t69 -113q0 -26 -15 -54t-46 -58q-18 -19 -43 -39.5t-58 -43.5q-25 -17 -63.5 -42.5 t-45.5 -29.5l1 -3l59 5z" />
<glyph d="M63 366h-5v170h147q113 0 173 -30.5t60 -89.5q0 -48 -48.5 -85.5t-154.5 -70.5q104 -11 158 -45t54 -88q0 -47 -41.5 -87t-120.5 -69q-55 -21 -120.5 -33.5t-111.5 -12.5l-8 25q102 0 176.5 39t74.5 104q0 55 -37.5 88.5t-122.5 50.5q-3 -1 -6 -1.5l-9 -1.5 q-6 -2 -9 -2.5t-6 -1.5l-2 17l32 12q102 38 137.5 72t35.5 76q0 48 -31.5 77t-84.5 29q-39 0 -68.5 -29.5t-61.5 -112.5z" />
<glyph horiz-adv-x="568" d="M394 45h122v-46h-122v-74h-114v74h-233l229 537h139l-275 -491h141v112l113 146v-258z" />
<glyph horiz-adv-x="481" d="M386 416h-266l-17 -120l34 19q23 10 47 15.5t49 5.5q76 0 132.5 -53t56.5 -130q0 -102 -69 -157t-194 -55h-115q1 52 2 95.5t2 76.5h7q11 -26 25.5 -49.5t33.5 -44.5q23 -25 48 -37.5t50 -12.5q51 0 72 33.5t21 109.5q0 96 -26.5 140t-80.5 44q-18 0 -43.5 -8.5 t-56.5 -25.5l-3 -22l-34 4l34 292h316z" />
<glyph horiz-adv-x="503" d="M240 -12q-85 0 -137.5 56t-52.5 149q0 126 110.5 247t281.5 191l6 -19q-101 -48 -172 -125.5t-95 -167.5q28 20 55 31t48 11q74 0 121.5 -48.5t47.5 -128.5q0 -78 -61.5 -137t-151.5 -59zM341 163q0 68 -31 112.5t-72 44.5q-21 0 -34 -5.5t-29 -20.5q-5 -22 -7.5 -47.5 t-2.5 -54.5q0 -84 24 -129t70 -45q37 0 59.5 44t22.5 101z" />
<glyph horiz-adv-x="483" d="M45 343v193h408l-328 -635l-32 16l246 499h-243z" />
<glyph horiz-adv-x="495" d="M157 294q-50 26 -72 64t-22 95q0 71 55 114t137 43q61 0 100.5 -33.5t39.5 -89.5q0 -41 -19 -72t-61 -58q67 -33 96.5 -77.5t29.5 -106.5q0 -85 -66.5 -136.5t-154.5 -51.5q-79 0 -126.5 40t-47.5 106q0 46 25.5 84.5t85.5 78.5zM148 487q0 -22 13.5 -40t43.5 -35 q16 -10 47.5 -24.5t41.5 -19.5q34 23 49.5 49t15.5 58q0 52 -30 81t-82 29q-43 0 -71 -26.5t-28 -71.5zM324 201q-10 13 -26 24.5t-39 23.5q-14 7 -40.5 17.5t-34.5 14.5q-47 -28 -74.5 -66.5t-27.5 -79.5q0 -54 38.5 -89.5t100.5 -35.5q59 0 93.5 30.5t34.5 84.5 q0 23 -6 42t-19 34z" />
<glyph horiz-adv-x="497" d="M256 540q85 0 137.5 -56t52.5 -149q0 -126 -110.5 -247t-281.5 -191l-6 19q101 48 172 125.5t95 167.5q-28 -20 -55 -31t-48 -11q-74 0 -121.5 48.5t-47.5 128.5q0 78 61.5 137t151.5 59zM155 365q0 -68 31 -112.5t72 -44.5q21 0 34 5.5t29 20.5q5 22 7.5 47.5t2.5 54.5 q0 84 -24 129t-70 45q-37 0 -59.5 -44t-22.5 -101z" />
<glyph horiz-adv-x="217" d="M190 607l-82 -93l-81 93l81 92zM50 16l46 437h34l47 -437l-64 -46z" />
<glyph horiz-adv-x="504" d="M333 581l81 -92l-81 -93l-81 93zM420 30l8 1l23 -171h-82q-155 0 -224.5 38t-69.5 117q0 39 21.5 73t64.5 63q33 22 88.5 47t62.5 29l11 108h23l17 -122q-63 -23 -103 -72.5t-40 -103.5q0 -69 19 -104.5t55 -35.5q46 0 76 31t50 102z" />
<glyph horiz-adv-x="314" d="M172 438q-8 -16 -19.5 -30t-26.5 -26q-16 -13 -38.5 -24.5t-23.5 -12.5v-4q1 -1 23.5 -12.5t37.5 -24.5q16 -12 27.5 -26t19.5 -30q7 -16 11 -34t4 -38q0 -13 -1.5 -24.5t-7.5 -31.5q-6 -24 -8 -40t-2 -35q0 -61 20.5 -93t58.5 -32v-21q-79 0 -116 38.5t-37 119.5 q0 11 2 24.5t7 42.5q7 32 9 48t2 29q0 33 -12.5 61t-35.5 47q-9 7 -16.5 10.5t-23.5 8.5v30q16 5 23.5 8.5t16.5 10.5q23 19 35.5 47t12.5 61q0 13 -2 29t-9 48q-5 29 -7 42.5t-2 24.5q0 81 37 119.5t117 38.5v-21q-39 0 -59.5 -32t-20.5 -93q0 -19 2 -35t8 -40 q6 -20 7.5 -31.5t1.5 -24.5q0 -20 -4 -38t-11 -34z" />
<glyph horiz-adv-x="314" d="M142 248q8 16 19.5 30t26.5 26q16 13 38.5 24.5t23.5 12.5v4q-1 1 -23.5 12.5t-37.5 24.5q-16 12 -27.5 26t-19.5 30q-7 16 -11 34t-4 38q0 13 1.5 24.5t7.5 31.5q6 24 8 40t2 35q0 61 -20.5 93t-58.5 32v21q79 0 116 -38.5t37 -119.5q0 -11 -2 -24.5t-7 -42.5 q-7 -32 -9 -48t-2 -29q0 -33 12.5 -61t35.5 -47q9 -7 16.5 -10.5t23.5 -8.5v-30q-16 -5 -23.5 -8.5t-16.5 -10.5q-23 -19 -35.5 -47t-12.5 -61q0 -13 2 -29t9 -48q5 -29 7 -42.5t2 -24.5q0 -81 -37 -119.5t-117 -38.5v21q39 0 59.5 32t20.5 93q0 19 -2 35t-8 40 q-6 20 -7.5 31.5t-1.5 24.5q0 20 4 38t11 34z" />
<glyph horiz-adv-x="237" d="M16 778h181v-46h-127v-769h127v-56h-181v871z" />
<glyph horiz-adv-x="237" d="M40 -93v46h127v779h-127v46h181v-871h-181z" />
<glyph horiz-adv-x="290" d="M104 595q15 27 33 52.5t42 52.5q21 23 54.5 56.5l36.5 36.5l14 -15q-96 -102 -139 -206t-43 -229t43.5 -229.5t138.5 -205.5l-14 -15q-74 67 -108.5 109.5t-58.5 87.5q-29 55 -43 118t-14 135q0 35 3.5 67.5t10.5 63.5q7 32 18 62t26 59z" />
<glyph horiz-adv-x="290" d="M6 -92q95 101 138.5 205.5t43.5 229.5t-43 229t-139 206l14 15q3 -3 36.5 -36t53.5 -56q24 -27 42.5 -53t33.5 -53q15 -29 26 -59.5t19 -62.5q6 -31 9.5 -63t3.5 -67q0 -72 -14 -135t-43 -118q-24 -45 -58.5 -87.5t-108.5 -109.5z" />
<glyph horiz-adv-x="900" d="M858 310h-816v66h816v-66z" />
<glyph horiz-adv-x="500" d="M477 310h-454v66h454v-66z" />
<glyph horiz-adv-x="294" d="M264 305h-223v76h223v-76z" />
<glyph horiz-adv-x="446" d="M420 310h-394v66h394v-66z" />
<glyph horiz-adv-x="512" d="M77 343h85l107 -218l-10 -10l-235 228l235 228l10 -17zM288 343h84l107 -218l-9 -10l-236 228l236 228l9 -17z" />
<glyph horiz-adv-x="512" d="M235 343h-84l-107 218l9 10l236 -228l-236 -228l-9 17zM446 343h-85l-107 218l10 10l235 -228l-235 -228l-10 17z" />
<glyph horiz-adv-x="296" d="M69 343h85l107 -218l-10 -10l-235 228l235 228l10 -17z" />
<glyph horiz-adv-x="296" d="M230 343h-85l-107 218l10 10l235 -228l-235 -228l-10 17z" />
<glyph horiz-adv-x="708" d="M673 309q0 -42 -9 -77t-29 -71l-301 -29l47 137q-49 -61 -93.5 -94t-79.5 -33q-36 0 -55 22.5t-19 66.5q0 49 24.5 99t68.5 89q43 40 94 60t101 17l38 -3l85 5l-99 -294l47 -26l125 11q14 30 20 59t6 60q0 120 -85 205t-205 85t-205 -85t-85 -205t85 -205t205 -85 q62 0 118 25.5t98 71.5l20 -20q-45 -50 -107 -77.5t-129 -27.5q-132 0 -225.5 93.5t-93.5 225.5t93.5 225.5t225.5 93.5t225.5 -93.5t93.5 -225.5zM222 294q0 -34 12 -48t43 -14q25 0 60.5 25t57.5 57l56 155q-89 10 -159 -43.5t-70 -131.5z" />
<glyph horiz-adv-x="445" d="M422 490l5 -9l-290 -370h282l-20 -111h-381l298 379h-189l-56 -73l-6 2l9 190l47 -8h301z" />
<glyph horiz-adv-x="597" d="M51 242q0 57 19.5 112t55.5 97q38 45 89 68t112 23q97 0 158 -73t61 -181q0 -57 -19.5 -112t-55.5 -97q-38 -45 -89 -68t-112 -23q-97 0 -158 73.5t-61 180.5zM270 502q-49 0 -75 -43t-26 -120q0 -54 8.5 -104t25.5 -91l177 274q-22 41 -50 62.5t-60 21.5zM326 28 q46 0 74.5 50t28.5 113q0 53 -9 103.5t-26 92.5l-177 -275q21 -41 49 -62.5t60 -21.5z" />
<glyph horiz-adv-x="555" d="M250 -14q-90 0 -146.5 81t-56.5 201q0 138 71.5 236t184.5 98q90 0 146.5 -81t56.5 -201q0 -138 -71.5 -236t-184.5 -98zM252 557q-42 0 -64 -46.5t-22 -133.5q0 -63 8 -122t24 -107l142 329q-18 39 -40.5 59.5t-47.5 20.5zM300 31q39 0 63 54t24 126q0 64 -8.5 123 t-24.5 106l-141 -329q17 -39 39.5 -59.5t47.5 -20.5z" />
</font>
</defs>
</svg>
